Поиск

(Free Jazz) [CD] Fred Anderson & DKV Trio - Fred Anderson & DKV Trio - 1997, FLAC (image+.cue), lossless

(Free Jazz) [CD] Fred Anderson & DKV Trio - Fred Anderson & DKV Trio - 1997, FLAC (image+.cue), lossless
Треклист:
Fred Anderson & DKV Trio / Fred Anderson & DKV Trio
Жанр: Free Jazz
Носитель: CD
Страна-производитель диска: US
Год издания: 1997
Издатель (лейбл): Okka Disk
Номер по каталогу: OD12014
Аудиокодек: FLAC (*.flac)
Тип рипа: image+.cue
Битрейт аудио: lossless
Продолжительность: 47:54
Источник (релизер): CD
Наличие сканов в содержимом раздачи: нет
Треклист:
1. Planet E 8:30
2. Aaron's Tune 5:55
3. Black Woman 6:09
4. Our Theme 5:56
5. Dark Day 10:54
6. Lady's In Love 10:30
 
Лог создания рипа
Exact Audio Copy V1.0 beta 2 from 29. April 2011
EAC extraction logfile from 20. March 2014, 17:43
Fred Anderson & DKV Trio / Fred Anderson & DKV Trio
Used drive : Optiarc DVD RW AD-7170A Adapter: 0 ID: 0
Read mode : Secure
Utilize accurate stream : Yes
Defeat audio cache : Yes
Make use of C2 pointers : No
Read offset correction : 48
Overread into Lead-In and Lead-Out : No
Fill up missing offset samples with silence : Yes
Delete leading and trailing silent blocks : No
Null samples used in CRC calculations : Yes
Used interface : Native Win32 interface for Win NT & 2000
Used output format : User Defined Encoder
Selected bitrate : 320 kBit/s
Quality : High
Add ID3 tag : No
Command line compressor : C:\Program Files\Exact Audio Copy\Flac\flac.exe
Additional command line options : -V -8 -T "Date=%year%" -T "Genre=%genre%" %source%
TOC of the extracted CD
Track | Start | Length | Start sector | End sector
---------------------------------------------------------
1 | 0:00.00 | 8:30.60 | 0 | 38309
2 | 8:30.60 | 5:55.07 | 38310 | 64941
3 | 14:25.67 | 6:08.18 | 64942 | 92559
4 | 20:34.10 | 5:56.37 | 92560 | 119296
5 | 26:30.47 | 10:53.28 | 119297 | 168299
6 | 37:24.00 | 10:30.27 | 168300 | 215576
Range status and errors
Selected range
Filename K:\ЕАС\Fred Anderson & DKV Trio - Fred Anderson & DKV Trio.wav
Peak level 100.0 %
Extraction speed 1.8 X
Range quality 99.9 %
Test CRC 90BC7CC4
Copy CRC 90BC7CC4
Copy OK
No errors occurred
AccurateRip summary
Track 1 accurately ripped (confidence 2) [CC727899] (AR v1)
Track 2 accurately ripped (confidence 2) [87BF7598] (AR v1)
Track 3 accurately ripped (confidence 2) [29EA2B1C] (AR v1)
Track 4 accurately ripped (confidence 2) [004001AF] (AR v1)
Track 5 accurately ripped (confidence 2) [16E53E12] (AR v1)
Track 6 accurately ripped (confidence 2) [F9703A10] (AR v1)
All tracks accurately ripped
End of status report
==== Log checksum EE588B0E8BB488846DAA6E9FF8E52447A6B7C8324FD41C68EB3B62FF33B51918 ====
 
Содержание индексной карты (.CUE)
REM GENRE Jazz
REM DATE 1997
REM DISCID 4A0B3A06
REM COMMENT "ExactAudioCopy v1.0b2"
PERFORMER "Fred Anderson & DKV Trio"
TITLE "Fred Anderson & DKV Trio"
FILE "Fred Anderson & DKV Trio - Fred Anderson & DKV Trio.flac" WAVE
TRACK 01 AUDIO
TITLE "Planet E"
PERFORMER "Fred Anderson & DKV Trio"
ISRC 000000000000
INDEX 01 00:00:00
TRACK 02 AUDIO
TITLE "Aaron's Tune"
PERFORMER "Fred Anderson & DKV Trio"
ISRC 000000000000
INDEX 00 08:27:02
INDEX 01 08:30:60
TRACK 03 AUDIO
TITLE "Black Woman"
PERFORMER "Fred Anderson & DKV Trio"
ISRC 000000000000
INDEX 00 14:22:12
INDEX 01 14:25:67
TRACK 04 AUDIO
TITLE "Our Theme"
PERFORMER "Fred Anderson & DKV Trio"
ISRC 000000000000
INDEX 00 20:30:30
INDEX 01 20:34:10
TRACK 05 AUDIO
TITLE "Dark Day"
PERFORMER "Fred Anderson & DKV Trio"
ISRC 000000000000
INDEX 00 26:26:65
INDEX 01 26:30:47
TRACK 06 AUDIO
TITLE "Lady's in Love"
PERFORMER "Fred Anderson & DKV Trio"
ISRC 000000000000
INDEX 00 37:19:20
INDEX 01 37:24:00
Доп. информация: Recorded on 3 December 1996 at Airwave Studios.
 
Об альбоме (сборнике)
Fred Anderson & DKV Trio is an excellent jazz album that captures the high level of musicianship possessed by these top Chicago players. Heard here are saxophonist Fred Anderson (founding member of the AACM), percussionist Hamid Drake, bassist Kent Kessler, and reeds man Ken Vandermark. With this group, there is no "warming up"; they're hot from the opening notes. "Planet E" is the first cut, and within no time the fire is stoked and the musicians move, wail, plummet, and shine. The breadth of playing hard and now -- of playing to live -- comes through quite clear; each tune reveals a different side of what exquisite players can do, from the walking-bass, standards feel of "Lady's in Love" to the rollicking urgency of "Aaron's Tune." Moments that, alone, are enough to justify this album's place in your jazz collection include "Black Woman," a heartbreaking, harmonizing saxophone duet that occasionally recalls "Gloomy Sunday," and a particularly brooding rendition of "Dark Day," an Anderson piece that appears on some of his other recordings, including Fred Anderson Quartet, Vol. 1 on Asian Improv. This take of "Dark Day" finds Vandermark on clarinet and Kessler bowing the bass in a manner that's alternately reflective and emotional. Hamid Drake's playing is faultless throughout. Fred Anderson & DKV Trio cannot disappoint any free-jazz fan; with its lyrical beauty, passion, and warmth, it will convert many a jazz enthusiast who thinks "free" means "squalling."
 
Состав
Bass [Uncredited] – Kent Kessler
Percussion [Uncredited] – Hamid Drake
Reeds [Uncredited], Producer – Ken Vandermark
Tenor Saxophone [Uncredited], Composed By – Fred Anderson
По всем вопросам пишите личное сообщение пользователю M0p94ok.
00:32
184
Нет комментариев. Ваш будет первым!