Вы используете незарегистрированную версию компонента "Вкладки"!

Поиск

(free jazz) [cd] Frank Gratkowski, Thomas Lehn, Melvyn Poore - Triskaidekaphonia (2006), FLAC (tracks+.cue), lossless

(free jazz) [cd] Frank Gratkowski, Thomas Lehn, Melvyn Poore - Triskaidekaphonia (2006), FLAC (tracks+.cue), lossless
Треклист:
(free jazz) [cd] Frank Gratkowski, Thomas Lehn, Melvyn Poore - Triskaidekaphonia (2006), FLAC (tracks+.cue), lossless


Frank Gratkowski, Thomas Lehn, Melvyn Poore
Triskaidekaphonia
Жанр: free jazz
Год выпуска: 2006
Издатель (лейбл):Leo Records/CD LR 461
Формат: FLAC (tracks+.cue)
Битрейт аудио: lossless
Продолжительность 1`08`30
Источник: what.cd

tracks

1 Ladders And Stairs 25:01
2 Umbrellas 10:06
3 Renaming A Boat 19:16
4 Hot Cross Buns 14:05


 
.log
Exact Audio Copy V1.0 beta 3 from 29. August 2011
EAC extraction logfile from 14. January 2016, 18:43
Frank Gratkowski, Thomas Lehn, Melvyn Poore / Triskaidekaphonia
Used drive : PLDS DVD-RW DS8A8SH Adapter: 0 ID: 0
Read mode : Secure
Utilize accurate stream : Yes
Defeat audio cache : Yes
Make use of C2 pointers : No
Read offset correction : 6
Overread into Lead-In and Lead-Out : No
Fill up missing offset samples with silence : Yes
Delete leading and trailing silent blocks : No
Null samples used in CRC calculations : Yes
Used interface : Native Win32 interface for Win NT & 2000
Gap handling : Appended to previous track
Used output format : User Defined Encoder
Selected bitrate : 1024 kBit/s
Quality : High
Add ID3 tag : Yes
Command line compressor : C:\Program Files (x86)\Exact Audio Copy\Flac\flac.exe
Additional command line options : -8 -e -V -T "ARTIST=%artist%" -T "TITLE=%title%" -T "ALBUM=%albumtitle%" -T "DATE=%year%" -T "TRACKNUMBER=%tracknr%" -T "GENRE=%genre%" -T "PERFORMER=%albuminterpret%" -T "COMPOSER=%composer%" %haslyrics%--tag-from-file=LYRICS="%lyricsfile%"%haslyrics% -T "ALBUMARTIST=%albumartist%" -T "DISCNUMBER=%cdnumber%" -T "TOTALDISCS=%totalcds%" -T "TOTALTRACKS=%numtracks%" -T "COMMENT=%comment%" %source% -o %dest%
TOC of the extracted CD
Track | Start | Length | Start sector | End sector
---------------------------------------------------------
1 | 0:00.00 | 25:01.66 | 0 | 112640
2 | 25:01.66 | 10:06.56 | 112641 | 158146
3 | 35:08.47 | 19:16.08 | 158147 | 244854
4 | 54:24.55 | 14:05.20 | 244855 | 308249
Track 1
Filename M:\Music\What.cd\Frank Gratkowski,Thomas Lehn, Melvyn Poore - Triskaidekaphonia (2006) [FLAC]\01 - Ladders and Stairs.wav
Pre-gap length 0:00:02.00
Peak level 82.6 %
Extraction speed 3.0 X
Track quality 100.0 %
Test CRC 52E379FC
Copy CRC 52E379FC
Track not present in AccurateRip database
Copy OK
Track 2
Filename M:\Music\What.cd\Frank Gratkowski,Thomas Lehn, Melvyn Poore - Triskaidekaphonia (2006) [FLAC]\02 - Umbrellas.wav
Peak level 96.6 %
Extraction speed 3.8 X
Track quality 100.0 %
Test CRC 29C7F45E
Copy CRC 29C7F45E
Track not present in AccurateRip database
Copy OK
Track 3
Filename M:\Music\What.cd\Frank Gratkowski,Thomas Lehn, Melvyn Poore - Triskaidekaphonia (2006) [FLAC]\03 - Renaming a Boat.wav
Peak level 96.6 %
Extraction speed 4.4 X
Track quality 100.0 %
Test CRC 942F6262
Copy CRC 942F6262
Track not present in AccurateRip database
Copy OK
Track 4
Filename M:\Music\What.cd\Frank Gratkowski,Thomas Lehn, Melvyn Poore - Triskaidekaphonia (2006) [FLAC]\04 - Hot Cross Buns.wav
Peak level 73.3 %
Extraction speed 4.7 X
Track quality 99.9 %
Test CRC 8ECDD909
Copy CRC 8ECDD909
Track not present in AccurateRip database
Copy OK
None of the tracks are present in the AccurateRip database
No errors occurred
End of status report
---- CUETools DB Plugin V2.1.3
[CTDB TOCID: lh1P58V3vHSc9Q2lrbrco4rv1L0-] found, Submit result: lh1P58V3vHSc9Q2lrbrco4rv1L0- has been confirmed
[be2d5617] (1/1) Accurately ripped
==== Log checksum 12F419EDE8D2733372714ADFA9DF5F9ED90ABF9BFC2140C63F70E240F032AB04 ====
 
.cue
REM DATE 2006
REM DISCID 20100E04
REM COMMENT "ExactAudioCopy v1.0b3"
PERFORMER "Frank Gratkowski, Thomas Lehn, Melvyn Poore"
TITLE "Triskaidekaphonia"
FILE "01 - Ladders and Stairs.wav" WAVE
TRACK 01 AUDIO
TITLE "Ladders and Stairs"
PERFORMER "Frank Gratkowski, Thomas Lehn, Melvyn Poore"
INDEX 01 00:00:00
FILE "02 - Umbrellas.wav" WAVE
TRACK 02 AUDIO
TITLE "Umbrellas"
PERFORMER "Frank Gratkowski, Thomas Lehn, Melvyn Poore"
INDEX 01 00:00:00
FILE "03 - Renaming a Boat.wav" WAVE
TRACK 03 AUDIO
TITLE "Renaming a Boat"
PERFORMER "Frank Gratkowski, Thomas Lehn, Melvyn Poore"
INDEX 01 00:00:00
FILE "04 - Hot Cross Buns.wav" WAVE
TRACK 04 AUDIO
TITLE "Hot Cross Buns"
PERFORMER "Frank Gratkowski, Thomas Lehn, Melvyn Poore"
INDEX 01 00:00:00
https://www.discogs.com/Frank-Gratkowski-Thomas-Lehn-Melvyn-Poore-Triskaidekaphonia/release/1281782
другие релизы
По всем вопросам пишите личное сообщение пользователю M0p94ok.
19:46
173
Нет комментариев. Ваш будет первым!