Вы используете незарегистрированную версию компонента "Вкладки"!

Поиск

(avant-garde, modern creative) [cd] Nils Wogram Septet - Complete Soul (2012), FLAC (tracks+.cue), lossless

(avant-garde, modern creative) [cd] Nils Wogram Septet - Complete Soul (2012), FLAC (tracks+.cue), lossless
Треклист:
(avant-garde, modern creative) [cd] Nils Wogram Septet - Complete Soul (2012), FLAC (tracks+.cue), lossless


Nils Wogram Septet - Complete Soul (2012)

Жанр: free jazz
Год выпуска: 2012
Издатель (лейбл):avant-garde, modern creative
Формат: FLAC (tracks+.cue)
Битрейт аудио: lossless
Продолжительность 1`05`19
Источник: what.cd
Nils Wogram - Trombone
Claudio Puntin - Clarinet
Tilman Ehrhorn - Tenor Saxophone
Stephan Meinberg - Trumpet
Steffen Schorn - Bass Clarinet, Baritone Saxophone
Frank Speer - Alto Saxophone
John Schröder - Drums

tracks

1 Complete Soul 6:09
2 Varunprya 10:17
3 Karnakangi 9:25
4 Song For Ahmed 7:25
5 Weakness Is Your Friend 6:58
6 Motivation 9:07
7 Zuerilhorn 8:39
8 External Wind 9:17


 
.log
Exact Audio Copy V1.0 beta 3 from 29. August 2011
EAC extraction logfile from 14. January 2016, 0:40
Nils Wogram Septet / Complete Soul
Used drive : PLDS DVD-RW DS8A8SH Adapter: 0 ID: 0
Read mode : Secure
Utilize accurate stream : Yes
Defeat audio cache : Yes
Make use of C2 pointers : No
Read offset correction : 6
Overread into Lead-In and Lead-Out : No
Fill up missing offset samples with silence : Yes
Delete leading and trailing silent blocks : No
Null samples used in CRC calculations : Yes
Used interface : Native Win32 interface for Win NT & 2000
Gap handling : Appended to previous track
Used output format : User Defined Encoder
Selected bitrate : 1024 kBit/s
Quality : High
Add ID3 tag : Yes
Command line compressor : C:\Program Files (x86)\Exact Audio Copy\Flac\flac.exe
Additional command line options : -8 -e -V -T "ARTIST=%artist%" -T "TITLE=%title%" -T "ALBUM=%albumtitle%" -T "DATE=%year%" -T "TRACKNUMBER=%tracknr%" -T "GENRE=%genre%" -T "PERFORMER=%albuminterpret%" -T "COMPOSER=%composer%" %haslyrics%--tag-from-file=LYRICS="%lyricsfile%"%haslyrics% -T "ALBUMARTIST=%albumartist%" -T "DISCNUMBER=%cdnumber%" -T "TOTALDISCS=%totalcds%" -T "TOTALTRACKS=%numtracks%" -T "COMMENT=%comment%" %source% -o %dest%
TOC of the extracted CD
Track | Start | Length | Start sector | End sector
---------------------------------------------------------
1 | 0:00.00 | 5:52.07 | 0 | 26406
2 | 5:52.07 | 10:02.34 | 26407 | 71590
3 | 15:54.41 | 9:09.70 | 71591 | 112835
4 | 25:04.36 | 7:49.00 | 112836 | 148010
5 | 32:53.36 | 6:49.73 | 148011 | 178758
6 | 39:43.34 | 8:04.66 | 178759 | 215124
7 | 47:48.25 | 8:29.54 | 215125 | 253353
8 | 56:18.04 | 9:00.50 | 253354 | 293903
Track 1
Filename M:\Music\What.cd\Nils Wogram Septet - Complete Soul (2012) [FLAC]\01 - Complete Soul.wav
Pre-gap length 0:00:02.00
Peak level 98.5 %
Extraction speed 2.5 X
Track quality 100.0 %
Test CRC FAA6B6B2
Copy CRC FAA6B6B2
Accurately ripped (confidence 5) [D822BC26] (AR v2)
Copy OK
Track 2
Filename M:\Music\What.cd\Nils Wogram Septet - Complete Soul (2012) [FLAC]\02 - Varunaprya.wav
Pre-gap length 0:00:05.01
Peak level 98.5 %
Extraction speed 3.1 X
Track quality 100.0 %
Test CRC CFBDAB02
Copy CRC CFBDAB02
Accurately ripped (confidence 5) [238934AB] (AR v2)
Copy OK
Track 3
Filename M:\Music\What.cd\Nils Wogram Septet - Complete Soul (2012) [FLAC]\03 - Karnakangi.wav
Pre-gap length 0:00:04.41
Peak level 98.5 %
Extraction speed 3.6 X
Track quality 100.0 %
Test CRC F42CD70F
Copy CRC F42CD70F
Accurately ripped (confidence 6) [B05CBCD8] (AR v2)
Copy OK
Track 4
Filename M:\Music\What.cd\Nils Wogram Septet - Complete Soul (2012) [FLAC]\04 - Song For Ahmed.wav
Pre-gap length 0:00:03.72
Peak level 98.5 %
Extraction speed 3.9 X
Track quality 100.0 %
Test CRC BBC2BB4D
Copy CRC BBC2BB4D
Accurately ripped (confidence 6) [358E8D1B] (AR v2)
Copy OK
Track 5
Filename M:\Music\What.cd\Nils Wogram Septet - Complete Soul (2012) [FLAC]\05 - Weakness Is Your Friend.wav
Pre-gap length 0:00:05.92
Peak level 98.5 %
Extraction speed 4.2 X
Track quality 100.0 %
Test CRC 1B1405F4
Copy CRC 1B1405F4
Accurately ripped (confidence 6) [88230119] (AR v2)
Copy OK
Track 6
Filename M:\Music\What.cd\Nils Wogram Septet - Complete Soul (2012) [FLAC]\06 - Motivation.wav
Pre-gap length 0:00:05.48
Peak level 98.5 %
Extraction speed 4.5 X
Track quality 100.0 %
Test CRC E0EE9522
Copy CRC E0EE9522
Accurately ripped (confidence 6) [B458E315] (AR v2)
Copy OK
Track 7
Filename M:\Music\What.cd\Nils Wogram Septet - Complete Soul (2012) [FLAC]\07 - Zuerihorn.wav
Pre-gap length 0:00:05.92
Peak level 98.5 %
Extraction speed 4.8 X
Track quality 100.0 %
Test CRC BE7485C7
Copy CRC BE7485C7
Accurately ripped (confidence 6) [80F91B98] (AR v2)
Copy OK
Track 8
Filename M:\Music\What.cd\Nils Wogram Septet - Complete Soul (2012) [FLAC]\08 - External Wind.wav
Pre-gap length 0:00:04.98
Peak level 98.5 %
Extraction speed 5.1 X
Track quality 100.0 %
Test CRC D90E12D2
Copy CRC D90E12D2
Accurately ripped (confidence 6) [FB548CC1] (AR v2)
Copy OK
All tracks accurately ripped
No errors occurred
End of status report
---- CUETools DB Plugin V2.1.3
[CTDB TOCID: n58tZzpjpny80Z2WMkB38jbJei8-] found, Submit result: n58tZzpjpny80Z2WMkB38jbJei8- has been confirmed
[e29b4a25] (5/5) Accurately ripped
==== Log checksum 8E271CCEA02D136FFC0068C165A86C6348F3E559F260D992FCABA6EF30BD455E ====
 
.cue
REM GENRE Jazz
REM DATE 2012
REM DISCID 750F4E08
REM COMMENT "ExactAudioCopy v1.0b3"
CATALOG 7640138445255
PERFORMER "Nils Wogram Septet"
TITLE "Complete Soul"
FILE "01 - Complete Soul.wav" WAVE
TRACK 01 AUDIO
TITLE "Complete Soul"
PERFORMER "Nils Wogram Septet"
ISRC CH3461104385
FLAGS DCP
INDEX 01 00:00:00
TRACK 02 AUDIO
TITLE "Varunaprya"
PERFORMER "Nils Wogram Septet"
ISRC CH3461104386
FLAGS DCP
INDEX 00 05:47:06
FILE "02 - Varunaprya.wav" WAVE
INDEX 01 00:00:00
TRACK 03 AUDIO
TITLE "Karnakangi"
PERFORMER "Nils Wogram Septet"
ISRC CH3461104387
FLAGS DCP
INDEX 00 09:58:03
FILE "03 - Karnakangi.wav" WAVE
INDEX 01 00:00:00
TRACK 04 AUDIO
TITLE "Song For Ahmed"
PERFORMER "Nils Wogram Septet"
ISRC CH3461104388
FLAGS DCP
INDEX 00 09:06:16
FILE "04 - Song For Ahmed.wav" WAVE
INDEX 01 00:00:00
TRACK 05 AUDIO
TITLE "Weakness Is Your Friend"
PERFORMER "Nils Wogram Septet"
ISRC CH3461104389
FLAGS DCP
INDEX 00 07:43:06
FILE "05 - Weakness Is Your Friend.wav" WAVE
INDEX 01 00:00:00
TRACK 06 AUDIO
TITLE "Motivation"
PERFORMER "Nils Wogram Septet"
ISRC CH3461104390
FLAGS DCP
INDEX 00 06:44:37
FILE "06 - Motivation.wav" WAVE
INDEX 01 00:00:00
TRACK 07 AUDIO
TITLE "Zuerihorn"
PERFORMER "Nils Wogram Septet"
ISRC CH3461104391
FLAGS DCP
INDEX 00 07:58:72
FILE "07 - Zuerihorn.wav" WAVE
INDEX 01 00:00:00
TRACK 08 AUDIO
TITLE "External Wind"
PERFORMER "Nils Wogram Septet"
ISRC CH3461104392
FLAGS DCP
INDEX 00 08:24:55
FILE "08 - External Wind.wav" WAVE
INDEX 01 00:00:00
http://www.allmusic.com/album/complete-soul-mw0002423748
другие релизы
По всем вопросам пишите личное сообщение пользователю M0p94ok.
19:45
198
Нет комментариев. Ваш будет первым!