Вы используете незарегистрированную версию компонента "Вкладки"!

Поиск

(free jazz) [cd] Evan Parker - Six Of One (2002), FLAC (tracks+.cue), lossless

(free jazz) [cd] Evan Parker - Six Of One (2002), FLAC (tracks+.cue), lossless
Треклист:
(free jazz) [cd] Evan Parker - Six Of One (2002), FLAC (tracks+.cue), lossless


Evan Parker - Six Of One (2002)

Жанр: free jazz
Год выпуска:
Издатель (лейбл):Psi / psi 02.03
Формат: FLAC (tracks+.cue)
Битрейт аудио: lossless
Продолжительность 56`16
Источник:
Evan Parker: soprano saxophone
Recorded on June 18, 1980 in St. Judes On The Hill, London, England.
Track 7 only available on the CD reissue.

tracks

1. One Of Six (4:36)
2. Two Of Six (11:46)
3. Three Of Six (10:01)
4. Four Of Six (10:50)
5. Five Of Six (5:38)
6. Six Of One (6:02)
7. At Sixes And Sevens (6:53)


 
.log
Exact Audio Copy V1.0 beta 3 from 29. August 2011
EAC extraction logfile from 4. January 2015, 16:31
Evan Parker / Six Of One
Used drive : ATAPI iHOS104 Adapter: 1 ID: 1
Read mode : Secure
Utilize accurate stream : Yes
Defeat audio cache : Yes
Make use of C2 pointers : No
Read offset correction : 696
Overread into Lead-In and Lead-Out : No
Fill up missing offset samples with silence : Yes
Delete leading and trailing silent blocks : No
Null samples used in CRC calculations : Yes
Used interface : Native Win32 interface for Win NT & 2000
Gap handling : Appended to previous track
Used output format : User Defined Encoder
Selected bitrate : 1024 kBit/s
Quality : High
Add ID3 tag : No
Command line compressor : C:\Program Files (x86)\Exact Audio Copy\Flac\flac.exe
Additional command line options : -8 -V -T "ARTIST=%artist%" -T "TITLE=%title%" -T "ALBUM=%albumtitle%" -T "DATE=%year%" -T "TRACKNUMBER=%tracknr%" -T "GENRE=%genre%" -T "PERFORMER=%albuminterpret%" -T "COMPOSER=%composer%" %haslyrics%--tag-from-file=LYRICS="%lyricsfile%"%haslyrics% -T "ALBUMARTIST=%albumartist%" -T "DISCNUMBER=%cdnumber%" -T "TOTALDISCS=%totalcds%" -T "TOTALTRACKS=%numtracks%" -T "COMMENT=%comment%" %source% -o %dest%
TOC of the extracted CD
Track | Start | Length | Start sector | End sector
---------------------------------------------------------
1 | 0:00.00 | 4:41.00 | 0 | 21074
2 | 4:41.00 | 11:51.00 | 21075 | 74399
3 | 16:32.00 | 10:06.00 | 74400 | 119849
4 | 26:38.00 | 10:55.00 | 119850 | 168974
5 | 37:33.00 | 5:43.00 | 168975 | 194699
6 | 43:16.00 | 6:07.00 | 194700 | 222224
7 | 49:23.00 | 6:53.01 | 222225 | 253200
Track 1
Filename C:\EAC Rips\Evan Parker - Six Of One (2002) [FLAC]\01 - One Of Six.wav
Pre-gap length 0:00:02.00
Peak level 61.0 %
Extraction speed 3.4 X
Track quality 100.0 %
Test CRC 4C43564D
Copy CRC 4C43564D
Accurately ripped (confidence 1) [430BFA29] (AR v2)
Copy OK
Track 2
Filename C:\EAC Rips\Evan Parker - Six Of One (2002) [FLAC]\02 - Two Of Six.wav
Pre-gap length 0:00:05.00
Peak level 85.2 %
Extraction speed 4.5 X
Track quality 100.0 %
Test CRC BC591516
Copy CRC BC591516
Accurately ripped (confidence 1) [58FA4E73] (AR v2)
Copy OK
Track 3
Filename C:\EAC Rips\Evan Parker - Six Of One (2002) [FLAC]\03 - Three Of Six.wav
Pre-gap length 0:00:05.00
Peak level 77.4 %
Extraction speed 5.4 X
Track quality 100.0 %
Test CRC A1A7575A
Copy CRC A1A7575A
Accurately ripped (confidence 1) [1D97D9A6] (AR v2)
Copy OK
Track 4
Filename C:\EAC Rips\Evan Parker - Six Of One (2002) [FLAC]\04 - Four Of Six.wav
Pre-gap length 0:00:05.00
Peak level 100.0 %
Extraction speed 5.5 X
Track quality 99.9 %
Test CRC 52FDC61B
Copy CRC 52FDC61B
Accurately ripped (confidence 1) [EE15EBA7] (AR v2)
Copy OK
Track 5
Filename C:\EAC Rips\Evan Parker - Six Of One (2002) [FLAC]\05 - Five Of Six.wav
Pre-gap length 0:00:05.00
Peak level 73.3 %
Extraction speed 6.2 X
Track quality 100.0 %
Test CRC DAFBC26E
Copy CRC DAFBC26E
Accurately ripped (confidence 1) [F853E341] (AR v2)
Copy OK
Track 6
Filename C:\EAC Rips\Evan Parker - Six Of One (2002) [FLAC]\06 - Six Of One.wav
Pre-gap length 0:00:05.00
Peak level 59.4 %
Extraction speed 6.5 X
Track quality 100.0 %
Test CRC EAE8BC6B
Copy CRC EAE8BC6B
Accurately ripped (confidence 1) [CB56FC2A] (AR v2)
Copy OK
Track 7
Filename C:\EAC Rips\Evan Parker - Six Of One (2002) [FLAC]\07 - At Sixes And Sevens.wav
Pre-gap length 0:00:05.00
Peak level 87.9 %
Extraction speed 6.0 X
Track quality 99.9 %
Test CRC C24CDCC7
Copy CRC C24CDCC7
Accurately ripped (confidence 1) [CF482BFA] (AR v2)
Copy OK
All tracks accurately ripped
No errors occurred
End of status report
---- CUETools DB Plugin V2.1.3
[CTDB TOCID: FtW4fsnew_hhUin2f2uxKqeqphY-] found, Submit result: FtW4fsnew_hhUin2f2uxKqeqphY- has been confirmed
[7788f960] (1/1) Accurately ripped
==== Log checksum BF66EDFC010D2D9948FDCA4DB745C1745506C084CD313AB648CA3D6CD7C637D3 ====
 
.cue
REM DATE 2002
REM DISCID 680D3007
REM COMMENT "ExactAudioCopy v1.0b3"
PERFORMER "Evan Parker"
TITLE "Six Of One"
FILE "01 - One Of Six.wav" WAVE
TRACK 01 AUDIO
TITLE "One Of Six"
PERFORMER "Evan Parker"
INDEX 01 00:00:00
TRACK 02 AUDIO
TITLE "Two Of Six"
PERFORMER "Evan Parker"
INDEX 00 04:36:00
FILE "02 - Two Of Six.wav" WAVE
INDEX 01 00:00:00
TRACK 03 AUDIO
TITLE "Three Of Six"
PERFORMER "Evan Parker"
INDEX 00 11:46:00
FILE "03 - Three Of Six.wav" WAVE
INDEX 01 00:00:00
TRACK 04 AUDIO
TITLE "Four Of Six"
PERFORMER "Evan Parker"
INDEX 00 10:01:00
FILE "04 - Four Of Six.wav" WAVE
INDEX 01 00:00:00
TRACK 05 AUDIO
TITLE "Five Of Six"
PERFORMER "Evan Parker"
INDEX 00 10:50:00
FILE "05 - Five Of Six.wav" WAVE
INDEX 01 00:00:00
TRACK 06 AUDIO
TITLE "Six Of One"
PERFORMER "Evan Parker"
INDEX 00 05:38:00
FILE "06 - Six Of One.wav" WAVE
INDEX 01 00:00:00
TRACK 07 AUDIO
TITLE "At Sixes And Sevens"
PERFORMER "Evan Parker"
INDEX 00 06:02:00
FILE "07 - At Sixes And Sevens.wav" WAVE
INDEX 01 00:00:00

http://www.discogs.com/Evan-Parker-Six-Of-One/release/931686
другие релизы
По всем вопросам пишите личное сообщение пользователю M0p94ok.
11:01
268
Нет комментариев. Ваш будет первым!