Вы используете незарегистрированную версию компонента "Вкладки"!

Поиск

(free jazz) [cd] Charles Gayle 3 - Abiding Variation (1999) {FMP CD 100}, FLAC (tracks+.cue), lossless

(free jazz) [cd] Charles Gayle 3 - Abiding Variation (1999) {FMP CD 100}, FLAC (tracks+.cue), lossless
Треклист:
(free jazz) [cd] Charles Gayle 3 - Abiding Variation (1999) {FMP CD 100}, FLAC (tracks+.cue), lossless


Charles Gayle 3 - Abiding Variation (1999)

Жанр: free jazz
Год выпуска: 1999
Издатель (лейбл): FMP / FMP CD 100
Формат: FLAC (tracks+.cue)
Битрейт аудио: lossless
Продолжительность
Источник: what.cd
Double Bass – F. Vattel Cherry
Drums – Michael Wimberly
Tenor Saxophone, Bass Clarinet, Composed By [All Music] – Charles Gayle

tracks

1 Variation I 8:02
2 Variation II 17:23
3 Variation III 7:11
4 Variation IV 9:45
5 Variation V 10:38
6 Variation VI 5:11
7 Variation VII 13:28


 
.log
Exact Audio Copy V1.0 beta 3 from 29. August 2011
EAC extraction logfile from 12. March 2015, 8:47
Charles Gayle 3 / Abiding Variations
Used drive : HL-DT-STDVDRAM SP60NB50 Adapter: 2 ID: 1
Read mode : Secure
Utilize accurate stream : Yes
Defeat audio cache : Yes
Make use of C2 pointers : No
Read offset correction : 6
Overread into Lead-In and Lead-Out : No
Fill up missing offset samples with silence : Yes
Delete leading and trailing silent blocks : No
Null samples used in CRC calculations : Yes
Used interface : Native Win32 interface for Win NT & 2000
Gap handling : Appended to previous track
Used output format : User Defined Encoder
Selected bitrate : 1024 kBit/s
Quality : High
Add ID3 tag : No
Command line compressor : C:\Program Files (x86)\Exact Audio Copy\Flac\flac.exe
Additional command line options : -8 -V -T "ARTIST=%artist%" -T "TITLE=%title%" -T "ALBUM=%albumtitle%" -T "DATE=%year%" -T "TRACKNUMBER=%tracknr%" -T "GENRE=%genre%" -T "PERFORMER=%albuminterpret%" -T "COMPOSER=%composer%" %haslyrics%--tag-from-file=LYRICS="%lyricsfile%"%haslyrics% -T "ALBUMARTIST=%albumartist%" -T "DISCNUMBER=%cdnumber%" -T "TOTALDISCS=%totalcds%" -T "TOTALTRACKS=%numtracks%" -T "COMMENT=%comment%" %source% -o %dest%
TOC of the extracted CD
Track | Start | Length | Start sector | End sector
---------------------------------------------------------
1 | 0:00.00 | 8:02.32 | 0 | 36181
2 | 8:02.32 | 17:23.05 | 36182 | 114411
3 | 25:25.37 | 7:11.08 | 114412 | 146744
4 | 32:36.45 | 9:45.55 | 146745 | 190674
5 | 42:22.25 | 10:38.12 | 190675 | 238536
6 | 53:00.37 | 5:11.03 | 238537 | 261864
7 | 58:11.40 | 13:28.45 | 261865 | 322509
Track 1
Filename C:\FLAC Rips\Charles Gayle 3 - Abiding Variation (1999) [FLAC] {FMP CD 100}\01 - Variation I.wav
Pre-gap length 0:00:02.00
Peak level 80.1 %
Extraction speed 1.4 X
Track quality 100.0 %
Test CRC 0D93BBAC
Copy CRC 0D93BBAC
Accurately ripped (confidence 1) [9E5A3C10] (AR v1)
Copy OK
Track 2
Filename C:\FLAC Rips\Charles Gayle 3 - Abiding Variation (1999) [FLAC] {FMP CD 100}\02 - Variation II.wav
Peak level 96.8 %
Extraction speed 1.8 X
Track quality 100.0 %
Test CRC 85C8E5FD
Copy CRC 85C8E5FD
Accurately ripped (confidence 1) [93DC5387] (AR v1)
Copy OK
Track 3
Filename C:\FLAC Rips\Charles Gayle 3 - Abiding Variation (1999) [FLAC] {FMP CD 100}\03 - Variation III.wav
Peak level 71.2 %
Extraction speed 2.0 X
Track quality 100.0 %
Test CRC 166271FE
Copy CRC 166271FE
Accurately ripped (confidence 1) [E4C00CED] (AR v1)
Copy OK
Track 4
Filename C:\FLAC Rips\Charles Gayle 3 - Abiding Variation (1999) [FLAC] {FMP CD 100}\04 - Variation IV.wav
Peak level 100.0 %
Extraction speed 2.3 X
Track quality 100.0 %
Test CRC FAE6339D
Copy CRC FAE6339D
Accurately ripped (confidence 1) [D6F6ED23] (AR v1)
Copy OK
Track 5
Filename C:\FLAC Rips\Charles Gayle 3 - Abiding Variation (1999) [FLAC] {FMP CD 100}\05 - Variation V.wav
Peak level 76.5 %
Extraction speed 2.5 X
Track quality 100.0 %
Test CRC 09531397
Copy CRC 09531397
Accurately ripped (confidence 1) [4A7540A6] (AR v1)
Copy OK
Track 6
Filename C:\FLAC Rips\Charles Gayle 3 - Abiding Variation (1999) [FLAC] {FMP CD 100}\06 - Variation VI.wav
Peak level 78.1 %
Extraction speed 2.4 X
Track quality 100.0 %
Test CRC F237BA25
Copy CRC F237BA25
Accurately ripped (confidence 1) [BBD6719A] (AR v1)
Copy OK
Track 7
Filename C:\FLAC Rips\Charles Gayle 3 - Abiding Variation (1999) [FLAC] {FMP CD 100}\07 - Variation VII.wav
Peak level 91.0 %
Extraction speed 2.8 X
Track quality 100.0 %
Test CRC 1D5CC534
Copy CRC 1D5CC534
Accurately ripped (confidence 1) [8F2641E2] (AR v1)
Copy OK
All tracks accurately ripped
No errors occurred
End of status report
---- CUETools DB Plugin V2.1.3
[CTDB TOCID: X5D9TUmMvOLO1aQal_C0x3L3iLo-] disk not present in database, Submit result: X5D9TUmMvOLO1aQal_C0x3L3iLo- has been uploaded
==== Log checksum 6A71A4247762723C72A397C2B4BC63EDD2D4D248D389737A00F4278F4BC9FBE7 ====
 
.cue
REM GENRE Jazz
REM DATE 1999
REM DISCID 6810CC07
REM COMMENT "ExactAudioCopy v1.0b3"
CATALOG 0000000000000
PERFORMER "Charles Gayle 3"
TITLE "Abiding Variations"
FILE "01 - Variation I.wav" WAVE
TRACK 01 AUDIO
TITLE "Variation I"
PERFORMER "Charles Gayle 3"
INDEX 01 00:00:00
FILE "02 - Variation II.wav" WAVE
TRACK 02 AUDIO
TITLE "Variation II"
PERFORMER "Charles Gayle 3"
INDEX 01 00:00:00
FILE "03 - Variation III.wav" WAVE
TRACK 03 AUDIO
TITLE "Variation III"
PERFORMER "Charles Gayle 3"
INDEX 01 00:00:00
FILE "04 - Variation IV.wav" WAVE
TRACK 04 AUDIO
TITLE "Variation IV"
PERFORMER "Charles Gayle 3"
INDEX 01 00:00:00
FILE "05 - Variation V.wav" WAVE
TRACK 05 AUDIO
TITLE "Variation V"
PERFORMER "Charles Gayle 3"
INDEX 01 00:00:00
FILE "06 - Variation VI.wav" WAVE
TRACK 06 AUDIO
TITLE "Variation VI"
PERFORMER "Charles Gayle 3"
INDEX 01 00:00:00
FILE "07 - Variation VII.wav" WAVE
TRACK 07 AUDIO
TITLE "Variation VII"
PERFORMER "Charles Gayle 3"
INDEX 01 00:00:00
http://www.discogs.com/Charles-Gayle-3-Abiding-Variations/release/1017506
другие релизы
По всем вопросам пишите личное сообщение пользователю M0p94ok.
17:51
157
Нет комментариев. Ваш будет первым!