Вы используете незарегистрированную версию компонента "Вкладки"!

Поиск

(Free Jazz, Avant-Garde, Modern Creative) [CD] Theo Ceccaldi (feat. Alexandra Grimal) - Petite Moutarde - 2015, FLAC (tracks+.cue), lossless

(Free Jazz, Avant-Garde, Modern Creative) [CD] Theo Ceccaldi (feat. Alexandra Grimal) - Petite Moutarde - 2015, FLAC (tracks+.cue), lossless
Треклист:
Théo Ceccaldi Petite moutarde

Жанр: Free Jazz, Avant-Garde, Modern Creative
Страна-производитель диска: France
Год издания: 2015
Издатель (лейбл): ONJazz Records
Номер по каталогу: JF 001
Аудиокодек: FLAC (*.flac)
Тип рипа: tracks+.cue
Битрейт аудио: lossless
Продолжительность: 49:01
Источник (релизер): спасибо dtromp
Наличие сканов: да
Треклист:
1. Petit citron vert
2. Petit raifort
3. Petit piment d'Espelette
4. Petit wasabi
5. Petit poivre de Sichuan
6. Petit chipotle
7. Petite harissa
8. Petit gingembre
 
Лог создания рипа
Exact Audio Copy V1.1 from 23. June 2015
EAC extraction logfile from 23. December 2015, 9:23
Theo Ceccaldi / Petite Moutarde
Used drive : ATAPI iHBS112 2 Adapter: 1 ID: 1
Read mode : Secure
Utilize accurate stream : Yes
Defeat audio cache : Yes
Make use of C2 pointers : No
Read offset correction : 6
Overread into Lead-In and Lead-Out : No
Fill up missing offset samples with silence : Yes
Delete leading and trailing silent blocks : No
Null samples used in CRC calculations : Yes
Used interface : Native Win32 interface for Win NT & 2000
Gap handling : Appended to previous track
Used output format : User Defined Encoder
Selected bitrate : 128 kBit/s
Quality : High
Add ID3 tag : No
Command line compressor : C:\Program Files\Exact Audio Copy\Flac\flac.exe
Additional command line options : -8 -V -T "ARTIST=%artist%" -T "TITLE=%title%" -T "ALBUM=%albumtitle%" -T "DATE=%year%" -T "TRACKNUMBER=%tracknr%" -T "GENRE=%genre%" -T "PERFORMER=%albuminterpret%" -T "COMPOSER=%composer%" -T "ALBUMARTIST=%albumartist%" -T "DISCNUMBER=%cdnumber%" -T "TOTALDISCS=%totalcds%" -T "TOTALTRACKS=%numtracks%" -T "COMMENT=EAC Secure Mode, Test & Copy, AccurateRip, FLAC -8" %source% -o %dest%
TOC of the extracted CD
Track | Start | Length | Start sector | End sector
---------------------------------------------------------
1 | 0:00.00 | 7:24.47 | 0 | 33346
2 | 7:24.47 | 6:16.16 | 33347 | 61562
3 | 13:40.63 | 1:18.56 | 61563 | 67468
4 | 14:59.44 | 5:46.72 | 67469 | 93490
5 | 20:46.41 | 10:51.36 | 93491 | 142351
6 | 31:38.02 | 6:15.69 | 142352 | 170545
7 | 37:53.71 | 8:01.63 | 170546 | 206683
8 | 45:55.59 | 3:11.46 | 206684 | 221054
Track 1
Filename J:\DL\Theo Ceccaldi - Petite Moutarde (2015) [FLAC]\01 - Petit Citron Vert.wav
Pre-gap length 0:00:02.00
Peak level 96.6 %
Extraction speed 5.3 X
Track quality 100.0 %
Test CRC 8F9DE749
Copy CRC 8F9DE749
Track not present in AccurateRip database
Copy OK
Track 2
Filename J:\DL\Theo Ceccaldi - Petite Moutarde (2015) [FLAC]\02 - Petit Raifort.wav
Pre-gap length 0:00:00.02
Peak level 96.6 %
Extraction speed 6.0 X
Track quality 100.0 %
Test CRC 629D19A8
Copy CRC 629D19A8
Track not present in AccurateRip database
Copy OK
Track 3
Filename J:\DL\Theo Ceccaldi - Petite Moutarde (2015) [FLAC]\03 - Petit Piment d'Espelette.wav
Pre-gap length 0:00:00.03
Peak level 96.6 %
Extraction speed 5.0 X
Track quality 100.0 %
Test CRC E6FB54C3
Copy CRC E6FB54C3
Track not present in AccurateRip database
Copy OK
Track 4
Filename J:\DL\Theo Ceccaldi - Petite Moutarde (2015) [FLAC]\04 - Petit Wasabi.wav
Peak level 96.6 %
Extraction speed 6.9 X
Track quality 100.0 %
Test CRC 5FBCA361
Copy CRC 5FBCA361
Track not present in AccurateRip database
Copy OK
Track 5
Filename J:\DL\Theo Ceccaldi - Petite Moutarde (2015) [FLAC]\05 - Petit Poivre de Sichuan.wav
Peak level 96.6 %
Extraction speed 8.0 X
Track quality 100.0 %
Test CRC 5C4AF661
Copy CRC 5C4AF661
Track not present in AccurateRip database
Copy OK
Track 6
Filename J:\DL\Theo Ceccaldi - Petite Moutarde (2015) [FLAC]\06 - Petit Chipotle.wav
Pre-gap length 0:00:03.35
Peak level 96.6 %
Extraction speed 8.4 X
Track quality 100.0 %
Test CRC BB5A1F1D
Copy CRC BB5A1F1D
Track not present in AccurateRip database
Copy OK
Track 7
Filename J:\DL\Theo Ceccaldi - Petite Moutarde (2015) [FLAC]\07 - Petite Harissa.wav
Pre-gap length 0:00:02.21
Peak level 96.6 %
Extraction speed 9.0 X
Track quality 100.0 %
Test CRC DD3E3D32
Copy CRC DD3E3D32
Track not present in AccurateRip database
Copy OK
Track 8
Filename J:\DL\Theo Ceccaldi - Petite Moutarde (2015) [FLAC]\08 - Petit Gingembre.wav
Pre-gap length 0:00:00.16
Peak level 96.6 %
Extraction speed 8.3 X
Track quality 100.0 %
Test CRC 2FF512CD
Copy CRC 2FF512CD
Track not present in AccurateRip database
Copy OK
None of the tracks are present in the AccurateRip database
No errors occurred
End of status report
---- CUETools DB Plugin V2.1.6
[CTDB TOCID: cwNf7s2pRnn8iGfeMfI1ickxjpQ-] found
Submit result: cwNf7s2pRnn8iGfeMfI1ickxjpQ- has been confirmed
Track | CTDB Status
1 | (1/1) Accurately ripped
2 | (1/1) Accurately ripped
3 | (1/1) Accurately ripped
4 | (1/1) Accurately ripped
5 | (1/1) Accurately ripped
6 | (1/1) Accurately ripped
7 | (1/1) Accurately ripped
8 | (1/1) Accurately ripped
==== Log checksum DF3B6FDB3D92E2C6E73FC7FD1A5E1C0A64028E8CC57CD5A94A2658A81449ED5E ====
 
Содержание индексной карты (.CUE)
REM GENRE Jazz
REM DATE 2015
REM DISCID 640B8308
REM COMMENT "ExactAudioCopy v1.1"
PERFORMER "Theo Ceccaldi"
TITLE "Petite Moutarde"
FILE "01 - Petit Citron Vert.wav" WAVE
TRACK 01 AUDIO
TITLE "Petit Citron Vert"
PERFORMER "Theo Ceccaldi"
INDEX 01 00:00:00
TRACK 02 AUDIO
TITLE "Petit Raifort"
PERFORMER "Theo Ceccaldi"
INDEX 00 07:24:45
FILE "02 - Petit Raifort.wav" WAVE
INDEX 01 00:00:00
TRACK 03 AUDIO
TITLE "Petit Piment d'Espelette"
PERFORMER "Theo Ceccaldi"
INDEX 00 06:16:13
FILE "03 - Petit Piment d'Espelette.wav" WAVE
INDEX 01 00:00:00
FILE "04 - Petit Wasabi.wav" WAVE
TRACK 04 AUDIO
TITLE "Petit Wasabi"
PERFORMER "Theo Ceccaldi"
INDEX 01 00:00:00
FILE "05 - Petit Poivre de Sichuan.wav" WAVE
TRACK 05 AUDIO
TITLE "Petit Poivre de Sichuan"
PERFORMER "Theo Ceccaldi"
INDEX 01 00:00:00
TRACK 06 AUDIO
TITLE "Petit Chipotle"
PERFORMER "Theo Ceccaldi"
INDEX 00 10:48:01
FILE "06 - Petit Chipotle.wav" WAVE
INDEX 01 00:00:00
TRACK 07 AUDIO
TITLE "Petite Harissa"
PERFORMER "Theo Ceccaldi"
INDEX 00 06:13:48
FILE "07 - Petite Harissa.wav" WAVE
INDEX 01 00:00:00
TRACK 08 AUDIO
TITLE "Petit Gingembre"
PERFORMER "Theo Ceccaldi"
INDEX 00 08:01:47
FILE "08 - Petit Gingembre.wav" WAVE
INDEX 01 00:00:00
 
Об альбоме
Through an unprecedented quartet born of a residence at the Atelier du Plateau and the theme The filmmakers who filmed Paris, Theo Ceccaldi chose to explore the silent film, surrealist and Dadaist years 20. More particularly inspired by the Rene Clair film Entr'acte, violinist consists mirroring the universe of the filmmaker, a singular partition, lyrical and nuanced. With him Alexandra Grimal, and Ivan Gelugne, Florian Satche improvisers united by a common passion for multidisciplinary projects - interpret this soundtrack reinvented which meet a great vintage movie and writing an artist today . Caught in bursts of a mischievous and caustic work, the quartet then book a raw musical material, imaginative and contrast, based on the search for innovative forms and richness of acoustic timbres. Across the spectrum images of Rene Clair, this project is above all an encounter between four musicians avant-garde and minimalist, poetic and resolutely inventive two visual artists, Jean-Pascal Retel and Vincent Bodin service a hybrid form, movement, sensory and emotional. Amazing.
 
Состав

Théo Ceccaldi - violin, viola, compositions
Alexandra Grimal - saxophones tenor, soprano & sopranino, voice
Ivan Gélugne - double bass
Florian Satche - drums
Французы остаются верны своим гурманским замашкам и в музыке - вашему вниманию "гастрономический" альбом Тео Чеккальди сотоварищи (каждый трек в переводе с французского означает "Маленький зеленый лимон", "Маленький перец", "Маленький имбирь" и т.д.) Ну а серьезно, насколько удалось понять из Гугло-переводов, на создание этого диска музыканты вдохновились просмотром авангардной немой короткометражки 1924 года "Антракт" (реж. Рене Клер).
По всем вопросам пишите личное сообщение пользователю M0p94ok.
17:52
175
Нет комментариев. Ваш будет первым!