Вы используете незарегистрированную версию компонента "Вкладки"!

Поиск

(Free Jazz) [CD] Cecil Taylor — Fly! Fly! Fly! Fly! Fly! — 2012 (1980), FLAC (tracks+.cue), lossless

(Free Jazz) [CD] Cecil Taylor — Fly! Fly! Fly! Fly! Fly! — 2012 (1980), FLAC (tracks+.cue), lossless
Треклист:
Cecil Taylor / Fly! Fly! Fly! Fly! Fly!
Жанр: Free Jazz
Носитель: CD
Страна-производитель диска: Germany
Год издания: 2012 (1980)
Издатель (лейбл): Promising Music
Номер по каталогу: 441172 CD
Страна: US
Аудиокодек: FLAC (*.flac)
Тип рипа: tracks+.cue
Битрейт аудио: lossless
Продолжительность: 47:48
Источник (релизер): what.cd
Наличие сканов в содержимом раздачи: нет
Треклист:
1 T (Beautiful Young'n) 0:53
2 Astar 6:09
3 Ensaslayi 7:54
4 I (Sister Young'n) 2:30
5 Corn In Sun + T (Moon) 6:15
6 The Stele Stolen And Broken Is Reclaimed 9:23
7 N + R (Love Is Friends) 4:05
8 Rocks Sub Amba 10:18
 
Лог создания рипа
X Lossless Decoder version 20130127 (142.3)
XLD extraction logfile from 2013-03-29 13:23:14 +0100
Cecil Taylor / Cecil Taylor - Fly! Fly! Fly! Fly! Fly! [MPS]
Used drive : TSSTcorp CDDVDW SE-S084D (revision TS01)
Media type : Pressed CD
Ripper mode : XLD Secure Ripper
Disable audio cache : OK for the drive with a cache less than 1375KiB
Make use of C2 pointers : NO
Read offset correction : 6
Max retry count : 100
Gap status : Analyzed, Appended (except HTOA)
TOC of the extracted CD
Track | Start | Length | Start sector | End sector
---------------------------------------------------------
1 | 00:00:00 | 00:55:44 | 0 | 4168
2 | 00:55:44 | 06:12:72 | 4169 | 32140
3 | 07:08:41 | 07:58:56 | 32141 | 68046
4 | 15:07:22 | 02:33:03 | 68047 | 79524
5 | 17:40:25 | 06:18:38 | 79525 | 107912
6 | 23:58:63 | 09:24:52 | 107913 | 150264
7 | 33:23:40 | 04:07:19 | 150265 | 168808
8 | 37:30:59 | 10:18:13 | 168809 | 215171
AccurateRip Summary (DiscID: 000c9ab9-0057e7a0-4b0b3408)
Track 01 : OK (v1, confidence 2/2)
Track 02 : OK (v1, confidence 2/2)
Track 03 : OK (v1, confidence 2/2)
Track 04 : OK (v1, confidence 2/2)
Track 05 : OK (v1, confidence 2/2)
Track 06 : OK (v1, confidence 2/2)
Track 07 : OK (v1, confidence 2/2)
Track 08 : OK (v1, confidence 2/2)
->All tracks accurately ripped.
All Tracks
Album gain : -1.20 dB
Peak : 0.993866
Statistics
Read error : 0
Jitter error (maybe fixed) : 0
Retry sector count : 0
Damaged sector count : 0
Track 01
Filename : /Volumes/WD Elements 2TB/CD rips/Cecil Taylor - Fly! Fly! Fly! Fly! Fly! [MPS]/01 Cecil Taylor - T (Beautiful Young'n).flac
Pre-gap length : 00:02:00
Track gain : 0.62 dB
Peak : 0.695404
CRC32 hash (test run) : 8813426B
CRC32 hash : 8813426B
CRC32 hash (skip zero) : C5738073
AccurateRip v1 signature : 1BC04463
AccurateRip v2 signature : ED5A114B
->Accurately ripped (v1, confidence 2/2)
Statistics
Read error : 0
Jitter error (maybe fixed) : 0
Retry sector count : 0
Damaged sector count : 0
Track 02
Filename : /Volumes/WD Elements 2TB/CD rips/Cecil Taylor - Fly! Fly! Fly! Fly! Fly! [MPS]/02 Cecil Taylor - Astar.flac
Pre-gap length : 00:02:58
Track gain : 3.51 dB
Peak : 0.664612
CRC32 hash (test run) : F73AB7E9
CRC32 hash : F73AB7E9
CRC32 hash (skip zero) : 5A2B685C
AccurateRip v1 signature : D3DFF228
AccurateRip v2 signature : AF5D482C
->Accurately ripped (v1, confidence 2/2)
Statistics
Read error : 0
Jitter error (maybe fixed) : 0
Retry sector count : 0
Damaged sector count : 0
Track 03
Filename : /Volumes/WD Elements 2TB/CD rips/Cecil Taylor - Fly! Fly! Fly! Fly! Fly! [MPS]/03 Cecil Taylor - Ensaslayi.flac
Pre-gap length : 00:02:57
Track gain : -1.08 dB
Peak : 0.988892
CRC32 hash (test run) : 201255F3
CRC32 hash : 201255F3
CRC32 hash (skip zero) : 31C1056B
AccurateRip v1 signature : DB70F5C7
AccurateRip v2 signature : FAE76088
->Accurately ripped (v1, confidence 2/2)
Statistics
Read error : 0
Jitter error (maybe fixed) : 0
Retry sector count : 0
Damaged sector count : 0
Track 04
Filename : /Volumes/WD Elements 2TB/CD rips/Cecil Taylor - Fly! Fly! Fly! Fly! Fly! [MPS]/04 Cecil Taylor - I (Sister Young'n).flac
Pre-gap length : 00:02:25
Track gain : 0.62 dB
Peak : 0.765717
CRC32 hash (test run) : 9BC30585
CRC32 hash : 9BC30585
CRC32 hash (skip zero) : ECE6B212
AccurateRip v1 signature : 2EEBD939
AccurateRip v2 signature : 90932985
->Accurately ripped (v1, confidence 2/2)
Statistics
Read error : 0
Jitter error (maybe fixed) : 0
Retry sector count : 0
Damaged sector count : 0
Track 05
Filename : /Volumes/WD Elements 2TB/CD rips/Cecil Taylor - Fly! Fly! Fly! Fly! Fly! [MPS]/05 Cecil Taylor - Corn in Sun + T (Moon).flac
Pre-gap length : 00:03:35
Track gain : -0.66 dB
Peak : 0.991547
CRC32 hash (test run) : 6A6B1EEE
CRC32 hash : 6A6B1EEE
CRC32 hash (skip zero) : 37B68928
AccurateRip v1 signature : 385AE120
AccurateRip v2 signature : 42DD229A
->Accurately ripped (v1, confidence 2/2)
Statistics
Read error : 0
Jitter error (maybe fixed) : 0
Retry sector count : 0
Damaged sector count : 0
Track 06
Filename : /Volumes/WD Elements 2TB/CD rips/Cecil Taylor - Fly! Fly! Fly! Fly! Fly! [MPS]/06 Cecil Taylor - The Stele Stolen and Broken is Reclaimed.flac
Pre-gap length : 00:02:38
Track gain : -1.88 dB
Peak : 0.993591
CRC32 hash (test run) : 47ED80E1
CRC32 hash : 47ED80E1
CRC32 hash (skip zero) : CC16AE58
AccurateRip v1 signature : F33602C5
AccurateRip v2 signature : 481BE28D
->Accurately ripped (v1, confidence 2/2)
Statistics
Read error : 0
Jitter error (maybe fixed) : 0
Retry sector count : 0
Damaged sector count : 0
Track 07
Filename : /Volumes/WD Elements 2TB/CD rips/Cecil Taylor - Fly! Fly! Fly! Fly! Fly! [MPS]/07 Cecil Taylor - N+R (Live is Friends).flac
Pre-gap length : 00:02:49
Track gain : 1.11 dB
Peak : 0.992218
CRC32 hash (test run) : DB6D0518
CRC32 hash : DB6D0518
CRC32 hash (skip zero) : 60D8F5B0
AccurateRip v1 signature : 0116137C
AccurateRip v2 signature : 2F9602B5
->Accurately ripped (v1, confidence 2/2)
Statistics
Read error : 0
Jitter error (maybe fixed) : 0
Retry sector count : 0
Damaged sector count : 0
Track 08
Filename : /Volumes/WD Elements 2TB/CD rips/Cecil Taylor - Fly! Fly! Fly! Fly! Fly! [MPS]/08 Cecil Taylor - Rocks Sub Amba.flac
Pre-gap length : 00:02:34
Track gain : -2.44 dB
Peak : 0.993866
CRC32 hash (test run) : 4B4A5F86
CRC32 hash : 4B4A5F86
CRC32 hash (skip zero) : 28E1BE14
AccurateRip v1 signature : 99CD6DE3
AccurateRip v2 signature : 1484659E
->Accurately ripped (v1, confidence 2/2)
Statistics
Read error : 0
Jitter error (maybe fixed) : 0
Retry sector count : 0
Damaged sector count : 0
No errors occurred
End of status report
 
Содержание индексной карты (.CUE)
TITLE "Cecil Taylor - Fly! Fly! Fly! Fly! Fly! [MPS]"
PERFORMER "Cecil Taylor"
CATALOG 0602537004287
REM GENRE "Jazz"
REM DATE "1980"
REM DISCNUMBER 1
REM TOTALDISCS 1
REM DISCID 4B0B3408
REM REPLAYGAIN_ALBUM_GAIN -1.20 dB
REM REPLAYGAIN_ALBUM_PEAK 0.993866
FILE "01 Cecil Taylor - T (Beautiful Young'n).flac" WAVE
TRACK 01 AUDIO
TITLE "T (Beautiful Young'n)"
PERFORMER "Cecil Taylor"
SONGWRITER "Cecil Taylor"
ISRC DEUM71201078
REM COMMENT "Piano (Bösendorfer Imperial): Cecil Taylor. Recorded Sunday, 14 September 1980 at MPS Studio, Villingen, Germany."
REM REPLAYGAIN_TRACK_GAIN 0.62 dB
REM REPLAYGAIN_TRACK_PEAK 0.695404
INDEX 01 00:00:00
TRACK 02 AUDIO
TITLE "Astar"
PERFORMER "Cecil Taylor"
SONGWRITER "Cecil Taylor"
ISRC DEUM71201079
REM COMMENT "Piano (Bösendorfer Imperial): Cecil Taylor. Recorded Sunday, 14 September 1980 at MPS Studio, Villingen, Germany."
REM REPLAYGAIN_TRACK_GAIN 3.51 dB
REM REPLAYGAIN_TRACK_PEAK 0.664612
INDEX 00 00:52:61
FILE "02 Cecil Taylor - Astar.flac" WAVE
INDEX 01 00:00:00
TRACK 03 AUDIO
TITLE "Ensaslayi"
PERFORMER "Cecil Taylor"
SONGWRITER "Cecil Taylor"
ISRC DEUM71201080
REM COMMENT "Piano (Bösendorfer Imperial): Cecil Taylor. Recorded Sunday, 14 September 1980 at MPS Studio, Villingen, Germany."
REM REPLAYGAIN_TRACK_GAIN -1.08 dB
REM REPLAYGAIN_TRACK_PEAK 0.988892
INDEX 00 06:10:15
FILE "03 Cecil Taylor - Ensaslayi.flac" WAVE
INDEX 01 00:00:00
TRACK 04 AUDIO
TITLE "I (Sister Young'n)"
PERFORMER "Cecil Taylor"
SONGWRITER "Cecil Taylor"
ISRC DEUM71201081
REM COMMENT "Piano (Bösendorfer Imperial): Cecil Taylor. Recorded Sunday, 14 September 1980 at MPS Studio, Villingen, Germany."
REM REPLAYGAIN_TRACK_GAIN 0.62 dB
REM REPLAYGAIN_TRACK_PEAK 0.765717
INDEX 00 07:56:31
FILE "04 Cecil Taylor - I (Sister Young'n).flac" WAVE
INDEX 01 00:00:00
TRACK 05 AUDIO
TITLE "Corn in Sun + T (Moon)"
PERFORMER "Cecil Taylor"
SONGWRITER "Cecil Taylor"
ISRC DEUM71201082
REM COMMENT "Piano (Bösendorfer Imperial): Cecil Taylor. Recorded Sunday, 14 September 1980 at MPS Studio, Villingen, Germany."
REM REPLAYGAIN_TRACK_GAIN -0.66 dB
REM REPLAYGAIN_TRACK_PEAK 0.991547
INDEX 00 02:29:43
FILE "05 Cecil Taylor - Corn in Sun + T (Moon).flac" WAVE
INDEX 01 00:00:00
TRACK 06 AUDIO
TITLE "The Stele Stolen and Broken is Reclaimed"
PERFORMER "Cecil Taylor"
SONGWRITER "Cecil Taylor"
ISRC DEUM71201083
REM COMMENT "Piano (Bösendorfer Imperial): Cecil Taylor. Recorded Sunday, 14 September 1980 at MPS Studio, Villingen, Germany."
REM REPLAYGAIN_TRACK_GAIN -1.88 dB
REM REPLAYGAIN_TRACK_PEAK 0.993591
INDEX 00 06:16:00
FILE "06 Cecil Taylor - The Stele Stolen and Broken is Reclaimed.flac" WAVE
INDEX 01 00:00:00
TRACK 07 AUDIO
TITLE "N+R (Live is Friends)"
PERFORMER "Cecil Taylor"
SONGWRITER "Cecil Taylor"
ISRC DEUM71201084
REM COMMENT "Piano (Bösendorfer Imperial): Cecil Taylor. Recorded Sunday, 14 September 1980 at MPS Studio, Villingen, Germany."
REM REPLAYGAIN_TRACK_GAIN 1.11 dB
REM REPLAYGAIN_TRACK_PEAK 0.992218
INDEX 00 09:22:03
FILE "07 Cecil Taylor - N+R (Live is Friends).flac" WAVE
INDEX 01 00:00:00
TRACK 08 AUDIO
TITLE "Rocks Sub Amba"
PERFORMER "Cecil Taylor"
SONGWRITER "Cecil Taylor"
ISRC DEUM71201085
REM COMMENT "Piano (Bösendorfer Imperial): Cecil Taylor. Recorded Sunday, 14 September 1980 at MPS Studio, Villingen, Germany."
REM REPLAYGAIN_TRACK_GAIN -2.44 dB
REM REPLAYGAIN_TRACK_PEAK 0.993866
INDEX 00 04:04:60
FILE "08 Cecil Taylor - Rocks Sub Amba.flac" WAVE
INDEX 01 00:00:00
 
Об альбоме (сборнике)
Recorded at the MPS-Studio in Villingen/Black Forest, Germany, September 14, 1980.
CD re-issue remastered from the original master tapes by Eastside Mastering, Berlin/Germany.
 
Состав
Piano – Cecil Taylor
По всем вопросам пишите личное сообщение пользователю M0p94ok.
23:19
132
Нет комментариев. Ваш будет первым!