Вы используете незарегистрированную версию компонента "Вкладки"!

Поиск

(Avant-Garde Jazz, Modern Creative) [CD] Giorgio Gaslini - The Complete Remastered Recordings on Dischi Della Quercia {1976-85, 11CD} - 2013, FLAC (tracks+.cue), lossless

(Avant-Garde Jazz, Modern Creative) [CD] Giorgio Gaslini - The Complete Remastered Recordings on Dischi Della Quercia {1976-85, 11CD} - 2013, FLAC (tracks+.cue), lossless
Треклист:
♦ Giorgio Gaslini - The Complete Remastered Recordings on Dischi Della Quercia {1976-85, 11CD} ♦
Жанр: Avant-Garde Jazz, Modern Creative
Носитель: CD
Страна-производитель диска: Italy
Год издания: 2013
Издатель (лейбл): CAM London / CAM Jazz / Dischi Della Quercia
Номер по каталогу: BXS 5001
Аудиокодек: FLAC (*.flac)
Тип рипа: tracks+.cue
Битрейт аудио: lossless
Продолжительность: 08:26:21
Источник (релизер): ruskaval
Наличие сканов в содержимом раздачи: да
 
♦ CD01 - Murales (00:43:41)
Треклист:

01. Murales 1 [09:21]
02. Murales 2 [09:21]
03. Murales 3 [06:47]
04. Murales 4 [18:10]
 
Лог создания рипа
Exact Audio Copy V1.0 beta 3 from 29. August 2011
EAC extraction logfile from 19. December 2013, 14:42
Giorgio Gaslini Quartetto / Murales
Used drive : ATAPI DVD A DH16ABSH Adapter: 2 ID: 1
Read mode : Secure
Utilize accurate stream : Yes
Defeat audio cache : Yes
Make use of C2 pointers : No
Read offset correction : 6
Overread into Lead-In and Lead-Out : No
Fill up missing offset samples with silence : Yes
Delete leading and trailing silent blocks : No
Null samples used in CRC calculations : Yes
Used interface : Native Win32 interface for Win NT & 2000
Gap handling : Appended to previous track
Used output format : User Defined Encoder
Selected bitrate : 128 kBit/s
Quality : High
Add ID3 tag : No
Command line compressor : C:\Program Files (x86)\Exact Audio Copy\FLAC\FLAC.EXE
Additional command line options : -8 -V -T "ARTIST=%artist%" -T "TITLE=%title%" -T "ALBUM=%albumtitle%" -T "DATE=%year%" -T "TRACKNUMBER=%tracknr%" -T "TOTALTRACKS=%numtracks%" -T "GENRE=%genre%" -T "ALBUMARTIST=%albumartist%" -T "ALBUM ARTIST=%albumartist%" -T "COMMENT=EAC Secure Mode, Test & Copy, AccurateRip, FLAC -8" %source%
TOC of the extracted CD
Track | Start | Length | Start sector | End sector
---------------------------------------------------------
1 | 0:00.00 | 9:21.74 | 0 | 42148
2 | 9:21.74 | 9:21.26 | 42149 | 84249
3 | 18:43.25 | 6:47.08 | 84250 | 114782
4 | 25:30.33 | 18:10.69 | 114783 | 196601
Track 1
Filename C:\Users\owner\Desktop\Giorgio Gaslini - Complete Recordings o Dischi Della Quercia () [FLAC] {Part 1 - 5xCDs}\Giorgio Gaslini Quartetto - Murales (1976)\01 - Murales 1.wav
Pre-gap length 0:00:02.00
Peak level 93.0 %
Extraction speed 3.8 X
Track quality 100.0 %
Test CRC 659B7FE7
Copy CRC 659B7FE7
Track not present in AccurateRip database
Copy OK
Track 2
Filename C:\Users\owner\Desktop\Giorgio Gaslini - Complete Recordings o Dischi Della Quercia () [FLAC] {Part 1 - 5xCDs}\Giorgio Gaslini Quartetto - Murales (1976)\02 - Murales 2.wav
Peak level 71.9 %
Extraction speed 4.7 X
Track quality 100.0 %
Test CRC C5FDFBE8
Copy CRC C5FDFBE8
Track not present in AccurateRip database
Copy OK
Track 3
Filename C:\Users\owner\Desktop\Giorgio Gaslini - Complete Recordings o Dischi Della Quercia () [FLAC] {Part 1 - 5xCDs}\Giorgio Gaslini Quartetto - Murales (1976)\03 - Murales 3.wav
Peak level 53.8 %
Extraction speed 5.1 X
Track quality 100.0 %
Test CRC 76330127
Copy CRC 76330127
Track not present in AccurateRip database
Copy OK
Track 4
Filename C:\Users\owner\Desktop\Giorgio Gaslini - Complete Recordings o Dischi Della Quercia () [FLAC] {Part 1 - 5xCDs}\Giorgio Gaslini Quartetto - Murales (1976)\04 - Murales 4.wav
Peak level 65.7 %
Extraction speed 5.2 X
Track quality 99.9 %
Test CRC 3D864D5C
Copy CRC 3D864D5C
Track not present in AccurateRip database
Copy OK
None of the tracks are present in the AccurateRip database
No errors occurred
End of status report
==== Log checksum AAF28757A22DB655D4C4D8F2C12E145006B3DD211E50B842FE54F99716A341B4 ====
 
Содержание индексной карты (.CUE)
REM DISCID 240A3D04
REM COMMENT "ExactAudioCopy v1.0b3"
PERFORMER "Giorgio Gaslini Quartetto"
TITLE "Murales"
FILE "01 - Murales 1.wav" WAVE
TRACK 01 AUDIO
TITLE "Murales 1"
PERFORMER "Giorgio Gaslini Quartetto"
FLAGS DCP
INDEX 01 00:00:00
FILE "02 - Murales 2.wav" WAVE
TRACK 02 AUDIO
TITLE "Murales 2"
PERFORMER "Giorgio Gaslini Quartetto"
FLAGS DCP
INDEX 01 00:00:00
FILE "03 - Murales 3.wav" WAVE
TRACK 03 AUDIO
TITLE "Murales 3"
PERFORMER "Giorgio Gaslini Quartetto"
FLAGS DCP
INDEX 01 00:00:00
FILE "04 - Murales 4.wav" WAVE
TRACK 04 AUDIO
TITLE "Murales 4"
PERFORMER "Giorgio Gaslini Quartetto"
FLAGS DCP
INDEX 01 00:00:00
 
♦ CD02 - New Orleans Suite (00:43:52)
Треклист:

01. Appointment In New Orleans [09:38]
02. Magnolias [05:44]
03. Day Way [06:24]
04. Ragazzine, vi prego Ascoltare (canto popolare veneto) [07:11]
05. Song For Diana [05:13]
06. Crescent City [06:33]
07. Jazz At Lu Charlie's [03:05]
 
Лог создания рипа
Exact Audio Copy V1.0 beta 3 from 29. August 2011
EAC extraction logfile from 19. December 2013, 15:39
Giorgio Gaslini Quartet / New Orleans Suite
Used drive : ATAPI DVD A DH16ABSH Adapter: 2 ID: 1
Read mode : Secure
Utilize accurate stream : Yes
Defeat audio cache : Yes
Make use of C2 pointers : No
Read offset correction : 6
Overread into Lead-In and Lead-Out : No
Fill up missing offset samples with silence : Yes
Delete leading and trailing silent blocks : No
Null samples used in CRC calculations : Yes
Used interface : Native Win32 interface for Win NT & 2000
Gap handling : Appended to previous track
Used output format : User Defined Encoder
Selected bitrate : 128 kBit/s
Quality : High
Add ID3 tag : No
Command line compressor : C:\Program Files (x86)\Exact Audio Copy\FLAC\FLAC.EXE
Additional command line options : -8 -V -T "ARTIST=%artist%" -T "TITLE=%title%" -T "ALBUM=%albumtitle%" -T "DATE=%year%" -T "TRACKNUMBER=%tracknr%" -T "TOTALTRACKS=%numtracks%" -T "GENRE=%genre%" -T "ALBUMARTIST=%albumartist%" -T "ALBUM ARTIST=%albumartist%" -T "COMMENT=EAC Secure Mode, Test & Copy, AccurateRip, FLAC -8" %source%
TOC of the extracted CD
Track | Start | Length | Start sector | End sector
---------------------------------------------------------
1 | 0:00.00 | 9:38.72 | 0 | 43421
2 | 9:38.72 | 5:44.29 | 43422 | 69250
3 | 15:23.26 | 6:24.49 | 69251 | 98099
4 | 21:48.00 | 7:11.55 | 98100 | 130479
5 | 28:59.55 | 5:13.47 | 130480 | 154001
6 | 34:13.27 | 6:33.37 | 154002 | 183513
7 | 40:46.64 | 3:05.36 | 183514 | 197424
Track 1
Filename C:\Users\owner\Desktop\Giorgio Gaslini - Complete Recordings o Dischi Della Quercia (1976-80) [FLAC] {Part 1 - 6xCDs}\Giorgio Gaslini Quartet - New Orleans Suite (1976)\01 - Appointment In New Orleans.wav
Pre-gap length 0:00:02.00
Peak level 72.7 %
Extraction speed 3.6 X
Track quality 99.9 %
Test CRC 10447A60
Copy CRC 10447A60
Track not present in AccurateRip database
Copy OK
Track 2
Filename C:\Users\owner\Desktop\Giorgio Gaslini - Complete Recordings o Dischi Della Quercia (1976-80) [FLAC] {Part 1 - 6xCDs}\Giorgio Gaslini Quartet - New Orleans Suite (1976)\02 - Magnolias.wav
Pre-gap length 0:00:06.51
Peak level 59.0 %
Extraction speed 4.5 X
Track quality 100.0 %
Test CRC AF7246EA
Copy CRC AF7246EA
Track not present in AccurateRip database
Copy OK
Track 3
Filename C:\Users\owner\Desktop\Giorgio Gaslini - Complete Recordings o Dischi Della Quercia (1976-80) [FLAC] {Part 1 - 6xCDs}\Giorgio Gaslini Quartet - New Orleans Suite (1976)\03 - Day Way.wav
Pre-gap length 0:00:08.09
Peak level 71.7 %
Extraction speed 5.0 X
Track quality 100.0 %
Test CRC B7A88613
Copy CRC B7A88613
Track not present in AccurateRip database
Copy OK
Track 4
Filename C:\Users\owner\Desktop\Giorgio Gaslini - Complete Recordings o Dischi Della Quercia (1976-80) [FLAC] {Part 1 - 6xCDs}\Giorgio Gaslini Quartet - New Orleans Suite (1976)\04 - Ragazzine, vi prego Ascoltare (canto popolare veneto).wav
Peak level 80.6 %
Extraction speed 5.5 X
Track quality 100.0 %
Test CRC 4CF527A5
Copy CRC 4CF527A5
Track not present in AccurateRip database
Copy OK
Track 5
Filename C:\Users\owner\Desktop\Giorgio Gaslini - Complete Recordings o Dischi Della Quercia (1976-80) [FLAC] {Part 1 - 6xCDs}\Giorgio Gaslini Quartet - New Orleans Suite (1976)\05 - Song For Diana.wav
Pre-gap length 0:00:03.63
Peak level 75.0 %
Extraction speed 5.8 X
Track quality 100.0 %
Test CRC 8CBF593B
Copy CRC 8CBF593B
Track not present in AccurateRip database
Copy OK
Track 6
Filename C:\Users\owner\Desktop\Giorgio Gaslini - Complete Recordings o Dischi Della Quercia (1976-80) [FLAC] {Part 1 - 6xCDs}\Giorgio Gaslini Quartet - New Orleans Suite (1976)\06 - Crescent City.wav
Peak level 86.2 %
Extraction speed 6.2 X
Track quality 100.0 %
Test CRC 55B8EA32
Copy CRC 55B8EA32
Track not present in AccurateRip database
Copy OK
Track 7
Filename C:\Users\owner\Desktop\Giorgio Gaslini - Complete Recordings o Dischi Della Quercia (1976-80) [FLAC] {Part 1 - 6xCDs}\Giorgio Gaslini Quartet - New Orleans Suite (1976)\07 - Jazz At Lu Charlie's.wav
Peak level 80.5 %
Extraction speed 5.9 X
Track quality 100.0 %
Test CRC 60758396
Copy CRC 60758396
Track not present in AccurateRip database
Copy OK
None of the tracks are present in the AccurateRip database
No errors occurred
End of status report
==== Log checksum C382B6EA6D680A2E2F5157B5A434E538915BAC57F9B1BB17A888F3F35842F317 ====
 
Содержание индексной карты (.CUE)
REM DISCID 4F0A4807
REM COMMENT "ExactAudioCopy v1.0b3"
PERFORMER "Giorgio Gaslini Quartet"
TITLE "New Orleans Suite"
FILE "01 - Appointment In New Orleans.wav" WAVE
TRACK 01 AUDIO
TITLE "Appointment In New Orleans"
PERFORMER "Giorgio Gaslini Quartet"
FLAGS DCP
INDEX 01 00:00:00
TRACK 02 AUDIO
TITLE "Magnolias"
PERFORMER "Giorgio Gaslini Quartet"
FLAGS DCP
INDEX 00 09:32:21
FILE "02 - Magnolias.wav" WAVE
INDEX 01 00:00:00
TRACK 03 AUDIO
TITLE "Day Way"
PERFORMER "Giorgio Gaslini Quartet"
FLAGS DCP
INDEX 00 05:36:20
FILE "03 - Day Way.wav" WAVE
INDEX 01 00:00:00
FILE "04 - Ragazzine, vi prego Ascoltare (canto popolare veneto).wav" WAVE
TRACK 04 AUDIO
TITLE "Ragazzine, vi prego Ascoltare (canto popolare veneto)"
PERFORMER "Giorgio Gaslini Quartet"
FLAGS DCP
INDEX 01 00:00:00
TRACK 05 AUDIO
TITLE "Song For Diana"
PERFORMER "Giorgio Gaslini Quartet"
FLAGS DCP
INDEX 00 07:07:67
FILE "05 - Song For Diana.wav" WAVE
INDEX 01 00:00:00
FILE "06 - Crescent City.wav" WAVE
TRACK 06 AUDIO
TITLE "Crescent City"
PERFORMER "Giorgio Gaslini Quartet"
FLAGS DCP
INDEX 01 00:00:00
FILE "07 - Jazz At Lu Charlie's.wav" WAVE
TRACK 07 AUDIO
TITLE "Jazz At Lu Charlie's"
PERFORMER "Giorgio Gaslini Quartet"
FLAGS DCP
INDEX 01 00:00:00
 
♦ CD03 - Free Actions (00:31:14)
Треклист:

01. I Movimento [03:50]
02. II Movimento [04:47]
03. III Movimento [06:33]
04. IV Movimento [07:18]
05. V Movimento [08:45]
 
Лог создания рипа
Exact Audio Copy V1.0 beta 3 from 29. August 2011
EAC extraction logfile from 19. December 2013, 16:28
Giorgio Gaslini Sestetto / Free Actions
Used drive : ATAPI DVD A DH16ABSH Adapter: 2 ID: 1
Read mode : Secure
Utilize accurate stream : Yes
Defeat audio cache : Yes
Make use of C2 pointers : No
Read offset correction : 6
Overread into Lead-In and Lead-Out : No
Fill up missing offset samples with silence : Yes
Delete leading and trailing silent blocks : No
Null samples used in CRC calculations : Yes
Used interface : Native Win32 interface for Win NT & 2000
Gap handling : Appended to previous track
Used output format : User Defined Encoder
Selected bitrate : 128 kBit/s
Quality : High
Add ID3 tag : No
Command line compressor : C:\Program Files (x86)\Exact Audio Copy\FLAC\FLAC.EXE
Additional command line options : -8 -V -T "ARTIST=%artist%" -T "TITLE=%title%" -T "ALBUM=%albumtitle%" -T "DATE=%year%" -T "TRACKNUMBER=%tracknr%" -T "TOTALTRACKS=%numtracks%" -T "GENRE=%genre%" -T "ALBUMARTIST=%albumartist%" -T "ALBUM ARTIST=%albumartist%" -T "COMMENT=EAC Secure Mode, Test & Copy, AccurateRip, FLAC -8" %source%
TOC of the extracted CD
Track | Start | Length | Start sector | End sector
---------------------------------------------------------
1 | 0:00.00 | 3:50.39 | 0 | 17288
2 | 3:50.39 | 4:47.56 | 17289 | 38869
3 | 8:38.20 | 6:33.02 | 38870 | 68346
4 | 15:11.22 | 7:18.20 | 68347 | 101216
5 | 22:29.42 | 8:45.02 | 101217 | 140593
Track 1
Filename C:\Users\owner\Desktop\Giorgio Gaslini - Complete Recordings o Dischi Della Quercia (1976-80) [FLAC] {Part 1 - 6xCDs}\Giorgio Gaslini Sestetto - Free Actions (1977)\01 - I Movimento.wav
Pre-gap length 0:00:02.00
Peak level 80.7 %
Extraction speed 3.3 X
Track quality 100.0 %
Test CRC 170A55D0
Copy CRC 170A55D0
Track not present in AccurateRip database
Copy OK
Track 2
Filename C:\Users\owner\Desktop\Giorgio Gaslini - Complete Recordings o Dischi Della Quercia (1976-80) [FLAC] {Part 1 - 6xCDs}\Giorgio Gaslini Sestetto - Free Actions (1977)\02 - II Movimento.wav
Pre-gap length 0:00:02.10
Peak level 81.3 %
Extraction speed 3.8 X
Track quality 100.0 %
Test CRC 90B641B0
Copy CRC 90B641B0
Track not present in AccurateRip database
Copy OK
Track 3
Filename C:\Users\owner\Desktop\Giorgio Gaslini - Complete Recordings o Dischi Della Quercia (1976-80) [FLAC] {Part 1 - 6xCDs}\Giorgio Gaslini Sestetto - Free Actions (1977)\03 - III Movimento.wav
Pre-gap length 0:00:02.68
Peak level 82.7 %
Extraction speed 4.4 X
Track quality 100.0 %
Test CRC C3CDC914
Copy CRC C3CDC914
Track not present in AccurateRip database
Copy OK
Track 4
Filename C:\Users\owner\Desktop\Giorgio Gaslini - Complete Recordings o Dischi Della Quercia (1976-80) [FLAC] {Part 1 - 6xCDs}\Giorgio Gaslini Sestetto - Free Actions (1977)\04 - IV Movimento.wav
Pre-gap length 0:00:03.27
Peak level 71.1 %
Extraction speed 4.7 X
Track quality 100.0 %
Test CRC 542B13E9
Copy CRC 542B13E9
Track not present in AccurateRip database
Copy OK
Track 5
Filename C:\Users\owner\Desktop\Giorgio Gaslini - Complete Recordings o Dischi Della Quercia (1976-80) [FLAC] {Part 1 - 6xCDs}\Giorgio Gaslini Sestetto - Free Actions (1977)\05 - V Movimento.wav
Pre-gap length 0:00:03.10
Peak level 84.1 %
Extraction speed 5.3 X
Track quality 100.0 %
Test CRC 845A703A
Copy CRC 845A703A
Track not present in AccurateRip database
Copy OK
None of the tracks are present in the AccurateRip database
No errors occurred
End of status report
==== Log checksum 51D493FA14E4D50A483CF6FE63E4BC5D44D01F52F675C369E66AA30A3E7667D4 ====
 
Содержание индексной карты (.CUE)
REM DISCID 27075205
REM COMMENT "ExactAudioCopy v1.0b3"
PERFORMER "Giorgio Gaslini Sestetto"
TITLE "Free Actions"
FILE "01 - I Movimento.wav" WAVE
TRACK 01 AUDIO
TITLE "I Movimento"
PERFORMER "Giorgio Gaslini Sestetto"
FLAGS DCP
INDEX 01 00:00:00
TRACK 02 AUDIO
TITLE "II Movimento"
PERFORMER "Giorgio Gaslini Sestetto"
FLAGS DCP
INDEX 00 03:48:29
FILE "02 - II Movimento.wav" WAVE
INDEX 01 00:00:00
TRACK 03 AUDIO
TITLE "III Movimento"
PERFORMER "Giorgio Gaslini Sestetto"
FLAGS DCP
INDEX 00 04:44:63
FILE "03 - III Movimento.wav" WAVE
INDEX 01 00:00:00
TRACK 04 AUDIO
TITLE "IV Movimento"
PERFORMER "Giorgio Gaslini Sestetto"
FLAGS DCP
INDEX 00 06:29:50
FILE "04 - IV Movimento.wav" WAVE
INDEX 01 00:00:00
TRACK 05 AUDIO
TITLE "V Movimento"
PERFORMER "Giorgio Gaslini Sestetto"
FLAGS DCP
INDEX 00 07:15:10
FILE "05 - V Movimento.wav" WAVE
INDEX 01 00:00:00
 
♦ CD04 - Graffiti (01:15:01)
Треклист:

01. Black Out [09:56]
02. Soul Street [08:04]
03. Ballo Popolare Sui Navigli [05:46]
04. Black Night Black Light [12:30]
05. Tastiere [12:09]
06. Mexico City Free [09:26]
07. Alle Fonti Del Jazz [08:15]
08. La Ballata Del Pover Luisin [08:50]
 
Лог создания рипа
Exact Audio Copy V1.0 beta 3 from 29. August 2011
EAC extraction logfile from 19. December 2013, 17:00
Giorgio Gaslini Sestetto / Graffiti
Used drive : ATAPI DVD A DH16ABSH Adapter: 2 ID: 1
Read mode : Secure
Utilize accurate stream : Yes
Defeat audio cache : Yes
Make use of C2 pointers : No
Read offset correction : 6
Overread into Lead-In and Lead-Out : No
Fill up missing offset samples with silence : Yes
Delete leading and trailing silent blocks : No
Null samples used in CRC calculations : Yes
Used interface : Native Win32 interface for Win NT & 2000
Gap handling : Appended to previous track
Used output format : User Defined Encoder
Selected bitrate : 128 kBit/s
Quality : High
Add ID3 tag : No
Command line compressor : C:\Program Files (x86)\Exact Audio Copy\FLAC\FLAC.EXE
Additional command line options : -8 -V -T "ARTIST=%artist%" -T "TITLE=%title%" -T "ALBUM=%albumtitle%" -T "DATE=%year%" -T "TRACKNUMBER=%tracknr%" -T "TOTALTRACKS=%numtracks%" -T "GENRE=%genre%" -T "ALBUMARTIST=%albumartist%" -T "ALBUM ARTIST=%albumartist%" -T "COMMENT=EAC Secure Mode, Test & Copy, AccurateRip, FLAC -8" %source%
TOC of the extracted CD
Track | Start | Length | Start sector | End sector
---------------------------------------------------------
1 | 0:00.00 | 9:56.38 | 0 | 44737
2 | 9:56.38 | 8:04.62 | 44738 | 81099
3 | 18:01.25 | 5:46.19 | 81100 | 107068
4 | 23:47.44 | 12:30.65 | 107069 | 163383
5 | 36:18.34 | 12:09.47 | 163384 | 218105
6 | 48:28.06 | 9:26.32 | 218106 | 260587
7 | 57:54.38 | 8:15.72 | 260588 | 297784
8 | 66:10.35 | 8:50.62 | 297785 | 337596
Track 1
Filename C:\Users\owner\Desktop\Giorgio Gaslini - Complete Recordings o Dischi Della Quercia (1976-80) [FLAC] {Part 1 - 6xCDs}\Giorgio Gaslini Sestetto - Graffiti (1977)\01 - Black Out.wav
Pre-gap length 0:00:02.00
Peak level 94.2 %
Extraction speed 4.3 X
Track quality 100.0 %
Test CRC 70B63052
Copy CRC 70B63052
Track not present in AccurateRip database
Copy OK
Track 2
Filename C:\Users\owner\Desktop\Giorgio Gaslini - Complete Recordings o Dischi Della Quercia (1976-80) [FLAC] {Part 1 - 6xCDs}\Giorgio Gaslini Sestetto - Graffiti (1977)\02 - Soul Street.wav
Peak level 97.0 %
Extraction speed 5.0 X
Track quality 100.0 %
Test CRC 2597652F
Copy CRC 2597652F
Track not present in AccurateRip database
Copy OK
Track 3
Filename C:\Users\owner\Desktop\Giorgio Gaslini - Complete Recordings o Dischi Della Quercia (1976-80) [FLAC] {Part 1 - 6xCDs}\Giorgio Gaslini Sestetto - Graffiti (1977)\03 - Ballo Popolare Sui Navigli.wav
Pre-gap length 0:00:02.00
Peak level 95.2 %
Extraction speed 4.5 X
Track quality 99.9 %
Test CRC F6638738
Copy CRC F6638738
Track not present in AccurateRip database
Copy OK
Track 4
Filename C:\Users\owner\Desktop\Giorgio Gaslini - Complete Recordings o Dischi Della Quercia (1976-80) [FLAC] {Part 1 - 6xCDs}\Giorgio Gaslini Sestetto - Graffiti (1977)\04 - Black Night Black Light.wav
Peak level 100.0 %
Extraction speed 5.6 X
Track quality 100.0 %
Test CRC 06250861
Copy CRC 06250861
Track not present in AccurateRip database
Copy OK
Track 5
Filename C:\Users\owner\Desktop\Giorgio Gaslini - Complete Recordings o Dischi Della Quercia (1976-80) [FLAC] {Part 1 - 6xCDs}\Giorgio Gaslini Sestetto - Graffiti (1977)\05 - Tastiere.wav
Pre-gap length 0:00:02.00
Peak level 100.0 %
Extraction speed 6.2 X
Track quality 100.0 %
Test CRC 188A6588
Copy CRC 188A6588
Track not present in AccurateRip database
Copy OK
Track 6
Filename C:\Users\owner\Desktop\Giorgio Gaslini - Complete Recordings o Dischi Della Quercia (1976-80) [FLAC] {Part 1 - 6xCDs}\Giorgio Gaslini Sestetto - Graffiti (1977)\06 - Mexico City Free.wav
Peak level 92.3 %
Extraction speed 7.0 X
Track quality 100.0 %
Test CRC D10D13E7
Copy CRC D10D13E7
Track not present in AccurateRip database
Copy OK
Track 7
Filename C:\Users\owner\Desktop\Giorgio Gaslini - Complete Recordings o Dischi Della Quercia (1976-80) [FLAC] {Part 1 - 6xCDs}\Giorgio Gaslini Sestetto - Graffiti (1977)\07 - Alle Fonti Del Jazz.wav
Pre-gap length 0:00:02.00
Peak level 89.9 %
Extraction speed 6.6 X
Track quality 100.0 %
Test CRC 500D4684
Copy CRC 500D4684
Track not present in AccurateRip database
Copy OK
Track 8
Filename C:\Users\owner\Desktop\Giorgio Gaslini - Complete Recordings o Dischi Della Quercia (1976-80) [FLAC] {Part 1 - 6xCDs}\Giorgio Gaslini Sestetto - Graffiti (1977)\08 - La Ballata Del Pover Luisin.wav
Peak level 87.3 %
Extraction speed 7.6 X
Track quality 100.0 %
Test CRC B925EB1C
Copy CRC B925EB1C
Track not present in AccurateRip database
Copy OK
None of the tracks are present in the AccurateRip database
No errors occurred
End of status report
==== Log checksum 95615505F881204F1B1914507FC719D7ADB99B1E06416C255E595653D27F2F08 ====
 
Содержание индексной карты (.CUE)
REM DISCID 74119508
REM COMMENT "ExactAudioCopy v1.0b3"
PERFORMER "Giorgio Gaslini Sestetto"
TITLE "Graffiti"
FILE "01 - Black Out.wav" WAVE
TRACK 01 AUDIO
TITLE "Black Out"
PERFORMER "Giorgio Gaslini Sestetto"
FLAGS DCP
INDEX 01 00:00:00
FILE "02 - Soul Street.wav" WAVE
TRACK 02 AUDIO
TITLE "Soul Street"
PERFORMER "Giorgio Gaslini Sestetto"
FLAGS DCP
INDEX 01 00:00:00
TRACK 03 AUDIO
TITLE "Ballo Popolare Sui Navigli"
PERFORMER "Giorgio Gaslini Sestetto"
FLAGS DCP
INDEX 00 08:02:62
FILE "03 - Ballo Popolare Sui Navigli.wav" WAVE
INDEX 01 00:00:00
FILE "04 - Black Night Black Light.wav" WAVE
TRACK 04 AUDIO
TITLE "Black Night Black Light"
PERFORMER "Giorgio Gaslini Sestetto"
FLAGS DCP
INDEX 01 00:00:00
TRACK 05 AUDIO
TITLE "Tastiere"
PERFORMER "Giorgio Gaslini Sestetto"
FLAGS DCP
INDEX 00 12:28:65
FILE "05 - Tastiere.wav" WAVE
INDEX 01 00:00:00
FILE "06 - Mexico City Free.wav" WAVE
TRACK 06 AUDIO
TITLE "Mexico City Free"
PERFORMER "Giorgio Gaslini Sestetto"
FLAGS DCP
INDEX 01 00:00:00
TRACK 07 AUDIO
TITLE "Alle Fonti Del Jazz"
PERFORMER "Giorgio Gaslini Sestetto"
FLAGS DCP
INDEX 00 09:24:32
FILE "07 - Alle Fonti Del Jazz.wav" WAVE
INDEX 01 00:00:00
FILE "08 - La Ballata Del Pover Luisin.wav" WAVE
TRACK 08 AUDIO
TITLE "La Ballata Del Pover Luisin"
PERFORMER "Giorgio Gaslini Sestetto"
FLAGS DCP
INDEX 01 00:00:00
 
♦ CD05 - Sharing (00:44:15)
Треклист:

01. Simona [11:03]
02. Four Lessons From The Third World [06:03]
03. Sharing [04:06]
04. Ode To A Green Frisbee [12:34]
05. Tango-Barcarola [04:44]
06. Ow-Wah Blues [05:43]
 
Лог создания рипа
Exact Audio Copy V1.0 beta 3 from 29. August 2011
EAC extraction logfile from 19. December 2013, 15:08
Giorgio Gaslini & Roswell Rudd / Sharing
Used drive : ATAPI DVD A DH16ABSH Adapter: 2 ID: 1
Read mode : Secure
Utilize accurate stream : Yes
Defeat audio cache : Yes
Make use of C2 pointers : No
Read offset correction : 6
Overread into Lead-In and Lead-Out : No
Fill up missing offset samples with silence : Yes
Delete leading and trailing silent blocks : No
Null samples used in CRC calculations : Yes
Used interface : Native Win32 interface for Win NT & 2000
Gap handling : Appended to previous track
Used output format : User Defined Encoder
Selected bitrate : 128 kBit/s
Quality : High
Add ID3 tag : No
Command line compressor : C:\Program Files (x86)\Exact Audio Copy\FLAC\FLAC.EXE
Additional command line options : -8 -V -T "ARTIST=%artist%" -T "TITLE=%title%" -T "ALBUM=%albumtitle%" -T "DATE=%year%" -T "TRACKNUMBER=%tracknr%" -T "TOTALTRACKS=%numtracks%" -T "GENRE=%genre%" -T "ALBUMARTIST=%albumartist%" -T "ALBUM ARTIST=%albumartist%" -T "COMMENT=EAC Secure Mode, Test & Copy, AccurateRip, FLAC -8" %source%
TOC of the extracted CD
Track | Start | Length | Start sector | End sector
---------------------------------------------------------
1 | 0:00.00 | 11:03.44 | 0 | 49768
2 | 11:03.44 | 6:03.67 | 49769 | 77060
3 | 17:07.36 | 4:06.33 | 77061 | 95543
4 | 21:13.69 | 12:34.62 | 95544 | 152155
5 | 33:48.56 | 4:44.03 | 152156 | 173458
6 | 38:32.59 | 5:43.04 | 173459 | 199187
Track 1
Filename C:\Users\owner\Desktop\Giorgio Gaslini - Complete Recordings o Dischi Della Quercia (1976-80) [FLAC] {Part 1 - 6xCDs}\Giorgio Gaslini & Roswell Rudd - Sharing (1978)\01 - Simona.wav
Pre-gap length 0:00:02.00
Peak level 50.0 %
Extraction speed 3.9 X
Track quality 100.0 %
Test CRC 3A244AF5
Copy CRC 3A244AF5
Track not present in AccurateRip database
Copy OK
Track 2
Filename C:\Users\owner\Desktop\Giorgio Gaslini - Complete Recordings o Dischi Della Quercia (1976-80) [FLAC] {Part 1 - 6xCDs}\Giorgio Gaslini & Roswell Rudd - Sharing (1978)\02 - Four Lessons From The Third World.wav
Pre-gap length 0:00:07.40
Peak level 51.5 %
Extraction speed 4.0 X
Track quality 99.9 %
Test CRC 343ACE52
Copy CRC 343ACE52
Track not present in AccurateRip database
Copy OK
Track 3
Filename C:\Users\owner\Desktop\Giorgio Gaslini - Complete Recordings o Dischi Della Quercia (1976-80) [FLAC] {Part 1 - 6xCDs}\Giorgio Gaslini & Roswell Rudd - Sharing (1978)\03 - Sharing.wav
Pre-gap length 0:00:03.20
Peak level 68.4 %
Extraction speed 4.7 X
Track quality 100.0 %
Test CRC DA377E62
Copy CRC DA377E62
Track not present in AccurateRip database
Copy OK
Track 4
Filename C:\Users\owner\Desktop\Giorgio Gaslini - Complete Recordings o Dischi Della Quercia (1976-80) [FLAC] {Part 1 - 6xCDs}\Giorgio Gaslini & Roswell Rudd - Sharing (1978)\04 - Ode To A Green Frisbee.wav
Pre-gap length 0:00:05.00
Peak level 49.1 %
Extraction speed 5.8 X
Track quality 100.0 %
Test CRC 061418B4
Copy CRC 061418B4
Track not present in AccurateRip database
Copy OK
Track 5
Filename C:\Users\owner\Desktop\Giorgio Gaslini - Complete Recordings o Dischi Della Quercia (1976-80) [FLAC] {Part 1 - 6xCDs}\Giorgio Gaslini & Roswell Rudd - Sharing (1978)\05 - Tango-Barcarola.wav
Pre-gap length 0:00:03.32
Peak level 100.0 %
Extraction speed 5.8 X
Track quality 100.0 %
Test CRC F3615E2E
Copy CRC F3615E2E
Track not present in AccurateRip database
Copy OK
Track 6
Filename C:\Users\owner\Desktop\Giorgio Gaslini - Complete Recordings o Dischi Della Quercia (1976-80) [FLAC] {Part 1 - 6xCDs}\Giorgio Gaslini & Roswell Rudd - Sharing (1978)\06 - Ow-Wah Blues.wav
Pre-gap length 0:00:11.08
Peak level 53.6 %
Extraction speed 6.3 X
Track quality 100.0 %
Test CRC E1D1CECE
Copy CRC E1D1CECE
Track not present in AccurateRip database
Copy OK
None of the tracks are present in the AccurateRip database
No errors occurred
End of status report
==== Log checksum D2DCBB67CBD5FE93BAABAA8BD7760F3C5B052FF33D010CF5E4E1DDD44C9F3C2B ====
 
Содержание индексной карты (.CUE)
REM DISCID 3D0A5F06
REM COMMENT "ExactAudioCopy v1.0b3"
PERFORMER "Giorgio Gaslini & Roswell Rudd"
TITLE "Sharing"
FILE "01 - Simona.wav" WAVE
TRACK 01 AUDIO
TITLE "Simona"
PERFORMER "Giorgio Gaslini & Roswell Rudd"
FLAGS DCP
INDEX 01 00:00:00
TRACK 02 AUDIO
TITLE "Four Lessons From The Third World"
PERFORMER "Giorgio Gaslini & Roswell Rudd"
FLAGS DCP
INDEX 00 10:56:04
FILE "02 - Four Lessons From The Third World.wav" WAVE
INDEX 01 00:00:00
TRACK 03 AUDIO
TITLE "Sharing"
PERFORMER "Giorgio Gaslini & Roswell Rudd"
FLAGS DCP
INDEX 00 06:00:47
FILE "03 - Sharing.wav" WAVE
INDEX 01 00:00:00
TRACK 04 AUDIO
TITLE "Ode To A Green Frisbee"
PERFORMER "Giorgio Gaslini & Roswell Rudd"
FLAGS DCP
INDEX 00 04:01:33
FILE "04 - Ode To A Green Frisbee.wav" WAVE
INDEX 01 00:00:00
TRACK 05 AUDIO
TITLE "Tango-Barcarola"
PERFORMER "Giorgio Gaslini & Roswell Rudd"
FLAGS DCP
INDEX 00 12:31:30
FILE "05 - Tango-Barcarola.wav" WAVE
INDEX 01 00:00:00
TRACK 06 AUDIO
TITLE "Ow-Wah Blues"
PERFORMER "Giorgio Gaslini & Roswell Rudd"
FLAGS DCP
INDEX 00 04:32:70
FILE "06 - Ow-Wah Blues.wav" WAVE
INDEX 01 00:00:00
 
♦ CD06 - Live At The Public Theater In New York (01:12:42)
Треклист:

01. Assalto Al Castello [19:21]
02. New York Song [05:53]
03. Swing Low Sweet Charlie [07:05]
04. Ballo Popolare Sui Navigli [04:54]
05. Mediterranean Suite [17:06]
06. Ricerca Su 'Free Actions' [09:52]
07. Ricerca Su 'Mexico City Free' [08:29]
 
Лог создания рипа
Exact Audio Copy V1.0 beta 3 from 29. August 2011
EAC extraction logfile from 19. December 2013, 16:09
Giorgio Gaslini Quintet / Live At The Public Theater In New York
Used drive : ATAPI DVD A DH16ABSH Adapter: 2 ID: 1
Read mode : Secure
Utilize accurate stream : Yes
Defeat audio cache : Yes
Make use of C2 pointers : No
Read offset correction : 6
Overread into Lead-In and Lead-Out : No
Fill up missing offset samples with silence : Yes
Delete leading and trailing silent blocks : No
Null samples used in CRC calculations : Yes
Used interface : Native Win32 interface for Win NT & 2000
Gap handling : Appended to previous track
Used output format : User Defined Encoder
Selected bitrate : 128 kBit/s
Quality : High
Add ID3 tag : No
Command line compressor : C:\Program Files (x86)\Exact Audio Copy\FLAC\FLAC.EXE
Additional command line options : -8 -V -T "ARTIST=%artist%" -T "TITLE=%title%" -T "ALBUM=%albumtitle%" -T "DATE=%year%" -T "TRACKNUMBER=%tracknr%" -T "TOTALTRACKS=%numtracks%" -T "GENRE=%genre%" -T "ALBUMARTIST=%albumartist%" -T "ALBUM ARTIST=%albumartist%" -T "COMMENT=EAC Secure Mode, Test & Copy, AccurateRip, FLAC -8" %source%
TOC of the extracted CD
Track | Start | Length | Start sector | End sector
---------------------------------------------------------
1 | 0:00.00 | 19:21.44 | 0 | 87118
2 | 19:21.44 | 5:53.51 | 87119 | 113644
3 | 25:15.20 | 7:05.08 | 113645 | 145527
4 | 32:20.28 | 4:54.10 | 145528 | 167587
5 | 37:14.38 | 17:06.05 | 167588 | 244542
6 | 54:20.43 | 9:52.56 | 244543 | 288998
7 | 64:13.24 | 8:29.16 | 288999 | 327189
Track 1
Filename C:\Users\owner\Desktop\Giorgio Gaslini - Complete Recordings o Dischi Della Quercia (1976-80) [FLAC] {Part 1 - 6xCDs}\Giorgio Gaslini Quintet - Live at The Public Theater in New York (1980)\01 - Assalto Al Castello.wav
Pre-gap length 0:00:02.00
Peak level 100.0 %
Extraction speed 4.6 X
Track quality 100.0 %
Test CRC 2009C32F
Copy CRC 2009C32F
Track not present in AccurateRip database
Copy OK
Track 2
Filename C:\Users\owner\Desktop\Giorgio Gaslini - Complete Recordings o Dischi Della Quercia (1976-80) [FLAC] {Part 1 - 6xCDs}\Giorgio Gaslini Quintet - Live at The Public Theater in New York (1980)\02 - New York Song.wav
Pre-gap length 0:00:03.12
Peak level 100.0 %
Extraction speed 5.3 X
Track quality 100.0 %
Test CRC D9764C63
Copy CRC D9764C63
Track not present in AccurateRip database
Copy OK
Track 3
Filename C:\Users\owner\Desktop\Giorgio Gaslini - Complete Recordings o Dischi Della Quercia (1976-80) [FLAC] {Part 1 - 6xCDs}\Giorgio Gaslini Quintet - Live at The Public Theater in New York (1980)\03 - Swing Low Sweet Charlie.wav
Pre-gap length 0:00:05.20
Peak level 76.3 %
Extraction speed 5.8 X
Track quality 100.0 %
Test CRC 3180E349
Copy CRC 3180E349
Track not present in AccurateRip database
Copy OK
Track 4
Filename C:\Users\owner\Desktop\Giorgio Gaslini - Complete Recordings o Dischi Della Quercia (1976-80) [FLAC] {Part 1 - 6xCDs}\Giorgio Gaslini Quintet - Live at The Public Theater in New York (1980)\04 - Ballo Popolare Sui Navigli.wav
Pre-gap length 0:00:04.05
Peak level 100.0 %
Extraction speed 4.9 X
Track quality 99.9 %
Test CRC AA44AFB7
Copy CRC AA44AFB7
Track not present in AccurateRip database
Copy OK
Track 5
Filename C:\Users\owner\Desktop\Giorgio Gaslini - Complete Recordings o Dischi Della Quercia (1976-80) [FLAC] {Part 1 - 6xCDs}\Giorgio Gaslini Quintet - Live at The Public Theater in New York (1980)\05 - Mediterranean Suite.wav
Pre-gap length 0:00:02.47
Peak level 100.0 %
Extraction speed 7.0 X
Track quality 100.0 %
Test CRC 4A4E57A0
Copy CRC 4A4E57A0
Track not present in AccurateRip database
Copy OK
Track 6
Filename C:\Users\owner\Desktop\Giorgio Gaslini - Complete Recordings o Dischi Della Quercia (1976-80) [FLAC] {Part 1 - 6xCDs}\Giorgio Gaslini Quintet - Live at The Public Theater in New York (1980)\06 - Ricerca Su ''Free Actions''.wav
Pre-gap length 0:00:01.40
Peak level 100.0 %
Extraction speed 6.5 X
Track quality 100.0 %
Test CRC 1EE1BC6D
Copy CRC 1EE1BC6D
Track not present in AccurateRip database
Copy OK
Track 7
Filename C:\Users\owner\Desktop\Giorgio Gaslini - Complete Recordings o Dischi Della Quercia (1976-80) [FLAC] {Part 1 - 6xCDs}\Giorgio Gaslini Quintet - Live at The Public Theater in New York (1980)\07 - Ricerca Su ''Mexico City Free''.wav
Pre-gap length 0:00:02.62
Peak level 100.0 %
Extraction speed 7.7 X
Track quality 100.0 %
Test CRC 064440A7
Copy CRC 064440A7
Track not present in AccurateRip database
Copy OK
None of the tracks are present in the AccurateRip database
No errors occurred
End of status report
==== Log checksum 294A0FE0D6E309BC18CE3281F5871D50EBDAA4AD12C07A341E0F6F8873A79361 ====
 
Содержание индексной карты (.CUE)
REM DISCID 5A110A07
REM COMMENT "ExactAudioCopy v1.0b3"
PERFORMER "Giorgio Gaslini Quintet"
TITLE "Live At The Public Theater In New York"
FILE "01 - Assalto Al Castello.wav" WAVE
TRACK 01 AUDIO
TITLE "Assalto Al Castello"
PERFORMER "Giorgio Gaslini Quintet"
FLAGS DCP
INDEX 01 00:00:00
TRACK 02 AUDIO
TITLE "New York Song"
PERFORMER "Giorgio Gaslini Quintet"
FLAGS DCP
INDEX 00 19:18:32
FILE "02 - New York Song.wav" WAVE
INDEX 01 00:00:00
TRACK 03 AUDIO
TITLE "Swing Low Sweet Charlie"
PERFORMER "Giorgio Gaslini Quintet"
FLAGS DCP
INDEX 00 05:48:31
FILE "03 - Swing Low Sweet Charlie.wav" WAVE
INDEX 01 00:00:00
TRACK 04 AUDIO
TITLE "Ballo Popolare Sui Navigli"
PERFORMER "Giorgio Gaslini Quintet"
FLAGS DCP
INDEX 00 07:01:03
FILE "04 - Ballo Popolare Sui Navigli.wav" WAVE
INDEX 01 00:00:00
TRACK 05 AUDIO
TITLE "Mediterranean Suite"
PERFORMER "Giorgio Gaslini Quintet"
FLAGS DCP
INDEX 00 04:51:38
FILE "05 - Mediterranean Suite.wav" WAVE
INDEX 01 00:00:00
TRACK 06 AUDIO
TITLE "Ricerca Su 'Free Actions'"
PERFORMER "Giorgio Gaslini Quintet"
FLAGS DCP
INDEX 00 17:04:40
FILE "06 - Ricerca Su ''Free Actions''.wav" WAVE
INDEX 01 00:00:00
TRACK 07 AUDIO
TITLE "Ricerca Su 'Mexico City Free'"
PERFORMER "Giorgio Gaslini Quintet"
FLAGS DCP
INDEX 00 09:49:69
FILE "07 - Ricerca Su ''Mexico City Free''.wav" WAVE
INDEX 01 00:00:00
 
♦ CD07 - Ecstasy (00:37:59)
Треклист:

01. Ecstasy [12:37]
02. Lonely Woman [08:20]
03. Pensieri Del Cuore Avventure Della Mente [11:32]
04. La Voce Del Mare [05:28]
 
Лог создания рипа
Exact Audio Copy V1.0 beta 3 from 29. August 2011
EAC extraction logfile from 4. January 2014, 12:27
Giorgio Gaslini & Eddie Gomez / Ecstasy
Used drive : ATAPI DVD A DH16ABSH Adapter: 2 ID: 1
Read mode : Secure
Utilize accurate stream : Yes
Defeat audio cache : Yes
Make use of C2 pointers : No
Read offset correction : 6
Overread into Lead-In and Lead-Out : No
Fill up missing offset samples with silence : Yes
Delete leading and trailing silent blocks : No
Null samples used in CRC calculations : Yes
Used interface : Native Win32 interface for Win NT & 2000
Gap handling : Appended to previous track
Used output format : User Defined Encoder
Selected bitrate : 128 kBit/s
Quality : High
Add ID3 tag : No
Command line compressor : C:\Program Files (x86)\Exact Audio Copy\FLAC\FLAC.EXE
Additional command line options : -8 -V -T "ARTIST=%artist%" -T "TITLE=%title%" -T "ALBUM=%albumtitle%" -T "DATE=%year%" -T "TRACKNUMBER=%tracknr%" -T "TOTALTRACKS=%numtracks%" -T "GENRE=%genre%" -T "ALBUMARTIST=%albumartist%" -T "ALBUM ARTIST=%albumartist%" -T "COMMENT=EAC Secure Mode, Test & Copy, AccurateRip, FLAC -8" %source%
TOC of the extracted CD
Track | Start | Length | Start sector | End sector
---------------------------------------------------------
1 | 0:00.00 | 12:37.41 | 0 | 56815
2 | 12:37.41 | 8:20.38 | 56816 | 94353
3 | 20:58.04 | 11:32.49 | 94354 | 146302
4 | 32:30.53 | 5:28.60 | 146303 | 170962
Track 1
Filename G:\Uploads\P\Giorgio Gaslini - The Complete Recordings on Dischi Della Quercia (1976-85) [FLAC] {11xCDs}\Giorgio Gaslini & Eddie Gomez - Ecstasy (1981)\01 - Ecstasy.wav
Pre-gap length 0:00:02.00
Peak level 96.0 %
Extraction speed 4.0 X
Track quality 100.0 %
Test CRC 2700A176
Copy CRC 2700A176
Track not present in AccurateRip database
Copy OK
Track 2
Filename G:\Uploads\P\Giorgio Gaslini - The Complete Recordings on Dischi Della Quercia (1976-85) [FLAC] {11xCDs}\Giorgio Gaslini & Eddie Gomez - Ecstasy (1981)\02 - Lonely Woman.wav
Peak level 69.8 %
Extraction speed 4.8 X
Track quality 100.0 %
Test CRC 711BBFE5
Copy CRC 711BBFE5
Track not present in AccurateRip database
Copy OK
Track 3
Filename G:\Uploads\P\Giorgio Gaslini - The Complete Recordings on Dischi Della Quercia (1976-85) [FLAC] {11xCDs}\Giorgio Gaslini & Eddie Gomez - Ecstasy (1981)\03 - Pensieri Del Cuore Avventure Della Mente.wav
Peak level 68.4 %
Extraction speed 5.8 X
Track quality 100.0 %
Test CRC FE9EF165
Copy CRC FE9EF165
Track not present in AccurateRip database
Copy OK
Track 4
Filename G:\Uploads\P\Giorgio Gaslini - The Complete Recordings on Dischi Della Quercia (1976-85) [FLAC] {11xCDs}\Giorgio Gaslini & Eddie Gomez - Ecstasy (1981)\04 - La Voce Del Mare.wav
Peak level 39.5 %
Extraction speed 5.9 X
Track quality 100.0 %
Test CRC 3D19A99F
Copy CRC 3D19A99F
Track not present in AccurateRip database
Copy OK
None of the tracks are present in the AccurateRip database
No errors occurred
End of status report
==== Log checksum A324203A5F6C01D7F5A8852A25CBC18E62F19BD5648E14AAD83B194113DA5AB9 ====
 
Содержание индексной карты (.CUE)
REM DISCID 3108E704
REM COMMENT "ExactAudioCopy v1.0b3"
PERFORMER "Giorgio Gaslini & Eddie Gomez"
TITLE "Ecstasy"
FILE "01 - Ecstasy.wav" WAVE
TRACK 01 AUDIO
TITLE "Ecstasy"
PERFORMER "Giorgio Gaslini & Eddie Gomez"
FLAGS DCP
INDEX 01 00:00:00
FILE "02 - Lonely Woman.wav" WAVE
TRACK 02 AUDIO
TITLE "Lonely Woman"
PERFORMER "Giorgio Gaslini & Eddie Gomez"
FLAGS DCP
INDEX 01 00:00:00
FILE "03 - Pensieri Del Cuore Avventure Della Mente.wav" WAVE
TRACK 03 AUDIO
TITLE "Pensieri Del Cuore Avventure Della Mente"
PERFORMER "Giorgio Gaslini & Eddie Gomez"
FLAGS DCP
INDEX 01 00:00:00
FILE "04 - La Voce Del Mare.wav" WAVE
TRACK 04 AUDIO
TITLE "La Voce Del Mare"
PERFORMER "Giorgio Gaslini & Eddie Gomez"
FLAGS DCP
INDEX 01 00:00:00
 
♦ CD08 - Four Pieces (00:37:09)
Треклист:

01. Composition N. 101 [17:53]
02. March [06:06]
03. Love Chant [05:37]
04. Anbrax [07:33]
 
Лог создания рипа
Exact Audio Copy V1.0 beta 3 from 29. August 2011
EAC extraction logfile from 19. December 2013, 19:38
Giorgio Gaslini & Anthony Braxton / Four Pieces
Used drive : ATAPI DVD A DH16ABSH Adapter: 2 ID: 1
Read mode : Secure
Utilize accurate stream : Yes
Defeat audio cache : Yes
Make use of C2 pointers : No
Read offset correction : 6
Overread into Lead-In and Lead-Out : No
Fill up missing offset samples with silence : Yes
Delete leading and trailing silent blocks : No
Null samples used in CRC calculations : Yes
Used interface : Native Win32 interface for Win NT & 2000
Gap handling : Appended to previous track
Used output format : User Defined Encoder
Selected bitrate : 128 kBit/s
Quality : High
Add ID3 tag : No
Command line compressor : C:\Program Files (x86)\Exact Audio Copy\FLAC\FLAC.EXE
Additional command line options : -8 -V -T "ARTIST=%artist%" -T "TITLE=%title%" -T "ALBUM=%albumtitle%" -T "DATE=%year%" -T "TRACKNUMBER=%tracknr%" -T "TOTALTRACKS=%numtracks%" -T "GENRE=%genre%" -T "ALBUMARTIST=%albumartist%" -T "ALBUM ARTIST=%albumartist%" -T "COMMENT=EAC Secure Mode, Test & Copy, AccurateRip, FLAC -8" %source%
TOC of the extracted CD
Track | Start | Length | Start sector | End sector
---------------------------------------------------------
1 | 0:00.00 | 17:53.56 | 0 | 80530
2 | 17:53.56 | 6:06.04 | 80531 | 107984
3 | 23:59.60 | 5:37.06 | 107985 | 133265
4 | 29:36.66 | 7:33.06 | 133266 | 167246
Track 1
Filename C:\Users\owner\Desktop\Giorgio Gaslini - The Complete Recordings on Dischi Della Quercia (1981-85) [FLAC] {Part 2 - 5xCDs}\Giorgio Gaslini & Anthony Braxton - Four Pieces (1981)\01 - Composition N. 101.wav
Pre-gap length 0:00:02.00
Peak level 86.6 %
Extraction speed 4.3 X
Track quality 100.0 %
Test CRC 704CB563
Copy CRC 704CB563
Track not present in AccurateRip database
Copy OK
Track 2
Filename C:\Users\owner\Desktop\Giorgio Gaslini - The Complete Recordings on Dischi Della Quercia (1981-85) [FLAC] {Part 2 - 5xCDs}\Giorgio Gaslini & Anthony Braxton - Four Pieces (1981)\02 - March.wav
Peak level 86.8 %
Extraction speed 4.9 X
Track quality 100.0 %
Test CRC AD8ACEAC
Copy CRC AD8ACEAC
Track not present in AccurateRip database
Copy OK
Track 3
Filename C:\Users\owner\Desktop\Giorgio Gaslini - The Complete Recordings on Dischi Della Quercia (1981-85) [FLAC] {Part 2 - 5xCDs}\Giorgio Gaslini & Anthony Braxton - Four Pieces (1981)\03 - Love Chant.wav
Pre-gap length 0:00:02.00
Peak level 82.2 %
Extraction speed 4.8 X
Track quality 100.0 %
Test CRC 3DEB7388
Copy CRC 3DEB7388
Track not present in AccurateRip database
Copy OK
Track 4
Filename C:\Users\owner\Desktop\Giorgio Gaslini - The Complete Recordings on Dischi Della Quercia (1981-85) [FLAC] {Part 2 - 5xCDs}\Giorgio Gaslini & Anthony Braxton - Four Pieces (1981)\04 - Anbrax.wav
Peak level 74.9 %
Extraction speed 5.6 X
Track quality 100.0 %
Test CRC BC776F0B
Copy CRC BC776F0B
Track not present in AccurateRip database
Copy OK
None of the tracks are present in the AccurateRip database
No errors occurred
End of status report
==== Log checksum 0332DFF25279DCB8E78602588380D23D13343764A2A5C3FDECDF5ABF1CFFEDE1 ====
 
Содержание индексной карты (.CUE)
REM DISCID 3008B504
REM COMMENT "ExactAudioCopy v1.0b3"
PERFORMER "Giorgio Gaslini & Anthony Braxton"
TITLE "Four Pieces"
FILE "01 - Composition N. 101.wav" WAVE
TRACK 01 AUDIO
TITLE "Composition N. 101"
PERFORMER "Giorgio Gaslini & Anthony Braxton"
FLAGS DCP
INDEX 01 00:00:00
FILE "02 - March.wav" WAVE
TRACK 02 AUDIO
TITLE "March"
PERFORMER "Giorgio Gaslini & Anthony Braxton"
FLAGS DCP
INDEX 01 00:00:00
TRACK 03 AUDIO
TITLE "Love Chant"
PERFORMER "Giorgio Gaslini & Anthony Braxton"
FLAGS DCP
INDEX 00 06:04:04
FILE "03 - Love Chant.wav" WAVE
INDEX 01 00:00:00
FILE "04 - Anbrax.wav" WAVE
TRACK 04 AUDIO
TITLE "Anbrax"
PERFORMER "Giorgio Gaslini & Anthony Braxton"
FLAGS DCP
INDEX 01 00:00:00
 
♦ CD09 - Indian Suite (00:30:11)
Треклист:

01. Parte Prima [15:14]
02. Parte Seconda [14:56]
 
Лог создания рипа
Exact Audio Copy V1.0 beta 3 from 29. August 2011
EAC extraction logfile from 19. December 2013, 20:54
Giorgio Gaslini Ottetto / Indian Suite
Used drive : ATAPI DVD A DH16ABSH Adapter: 2 ID: 1
Read mode : Secure
Utilize accurate stream : Yes
Defeat audio cache : Yes
Make use of C2 pointers : No
Read offset correction : 6
Overread into Lead-In and Lead-Out : No
Fill up missing offset samples with silence : Yes
Delete leading and trailing silent blocks : No
Null samples used in CRC calculations : Yes
Used interface : Native Win32 interface for Win NT & 2000
Gap handling : Appended to previous track
Used output format : User Defined Encoder
Selected bitrate : 128 kBit/s
Quality : High
Add ID3 tag : No
Command line compressor : C:\Program Files (x86)\Exact Audio Copy\FLAC\FLAC.EXE
Additional command line options : -8 -V -T "ARTIST=%artist%" -T "TITLE=%title%" -T "ALBUM=%albumtitle%" -T "DATE=%year%" -T "TRACKNUMBER=%tracknr%" -T "TOTALTRACKS=%numtracks%" -T "GENRE=%genre%" -T "ALBUMARTIST=%albumartist%" -T "ALBUM ARTIST=%albumartist%" -T "COMMENT=EAC Secure Mode, Test & Copy, AccurateRip, FLAC -8" %source%
TOC of the extracted CD
Track | Start | Length | Start sector | End sector
---------------------------------------------------------
1 | 0:00.00 | 15:14.39 | 0 | 68588
2 | 15:14.39 | 14:56.42 | 68589 | 135830
Track 1
Filename C:\Users\owner\Desktop\Giorgio Gaslini - The Complete Recordings on Dischi Della Quercia (1981-85) [FLAC] {Part 2 - 5xCDs}\Giorgio Gaslini Ottetto - Indian Suite (1983)\01 - Parte Prima.wav
Pre-gap length 0:00:02.00
Peak level 100.0 %
Extraction speed 2.2 X
Track quality 100.0 %
Test CRC CA4BB37F
Copy CRC CA4BB37F
Track not present in AccurateRip database
Copy OK
Track 2
Filename C:\Users\owner\Desktop\Giorgio Gaslini - The Complete Recordings on Dischi Della Quercia (1981-85) [FLAC] {Part 2 - 5xCDs}\Giorgio Gaslini Ottetto - Indian Suite (1983)\02 - Parte Seconda.wav
Peak level 100.0 %
Extraction speed 2.5 X
Track quality 100.0 %
Test CRC 70A31DAA
Copy CRC 70A31DAA
Track not present in AccurateRip database
Copy OK
None of the tracks are present in the AccurateRip database
No errors occurred
End of status report
==== Log checksum 59FF8C495F81CD10AF976D2330889CBE921054512D5B6304EB2168099DA1F3F1 ====
 
Содержание индексной карты (.CUE)
REM DISCID 12071302
REM COMMENT "ExactAudioCopy v1.0b3"
PERFORMER "Giorgio Gaslini Ottetto"
TITLE "Indian Suite"
FILE "01 - Parte Prima.wav" WAVE
TRACK 01 AUDIO
TITLE "Parte Prima"
PERFORMER "Giorgio Gaslini Ottetto"
FLAGS DCP
INDEX 01 00:00:00
FILE "02 - Parte Seconda.wav" WAVE
TRACK 02 AUDIO
TITLE "Parte Seconda"
PERFORMER "Giorgio Gaslini Ottetto"
FLAGS DCP
INDEX 01 00:00:00
 
♦ CD10 - Monodrama (00:39:24)
Треклист:

01. Musica Verticale [07:22]
02. Monodrama [14:20]
03. Risposte Senza Domande [17:40]
 
Лог создания рипа
Exact Audio Copy V1.0 beta 3 from 29. August 2011
EAC extraction logfile from 19. December 2013, 20:23
Giorgio Gaslini Octet / Monodrama
Used drive : ATAPI DVD A DH16ABSH Adapter: 2 ID: 1
Read mode : Secure
Utilize accurate stream : Yes
Defeat audio cache : Yes
Make use of C2 pointers : No
Read offset correction : 6
Overread into Lead-In and Lead-Out : No
Fill up missing offset samples with silence : Yes
Delete leading and trailing silent blocks : No
Null samples used in CRC calculations : Yes
Used interface : Native Win32 interface for Win NT & 2000
Gap handling : Appended to previous track
Used output format : User Defined Encoder
Selected bitrate : 128 kBit/s
Quality : High
Add ID3 tag : No
Command line compressor : C:\Program Files (x86)\Exact Audio Copy\FLAC\FLAC.EXE
Additional command line options : -8 -V -T "ARTIST=%artist%" -T "TITLE=%title%" -T "ALBUM=%albumtitle%" -T "DATE=%year%" -T "TRACKNUMBER=%tracknr%" -T "TOTALTRACKS=%numtracks%" -T "GENRE=%genre%" -T "ALBUMARTIST=%albumartist%" -T "ALBUM ARTIST=%albumartist%" -T "COMMENT=EAC Secure Mode, Test & Copy, AccurateRip, FLAC -8" %source%
TOC of the extracted CD
Track | Start | Length | Start sector | End sector
---------------------------------------------------------
1 | 0:00.00 | 7:22.65 | 0 | 33214
2 | 7:22.65 | 14:20.67 | 33215 | 97781
3 | 21:43.57 | 17:40.22 | 97782 | 177303
Track 1
Filename C:\Users\owner\Desktop\Giorgio Gaslini - The Complete Recordings on Dischi Della Quercia (1981-85) [FLAC] {Part 2 - 5xCDs}\Giorgio Gaslini Octet - Monodrama (1984)\01 - Musica Verticale.wav
Pre-gap length 0:00:02.00
Peak level 89.0 %
Extraction speed 3.1 X
Track quality 99.9 %
Test CRC 2C64133D
Copy CRC 2C64133D
Track not present in AccurateRip database
Copy OK
Track 2
Filename C:\Users\owner\Desktop\Giorgio Gaslini - The Complete Recordings on Dischi Della Quercia (1981-85) [FLAC] {Part 2 - 5xCDs}\Giorgio Gaslini Octet - Monodrama (1984)\02 - Monodrama.wav
Pre-gap length 0:00:02.66
Peak level 84.1 %
Extraction speed 4.3 X
Track quality 99.9 %
Test CRC FE541E60
Copy CRC FE541E60
Track not present in AccurateRip database
Copy OK
Track 3
Filename C:\Users\owner\Desktop\Giorgio Gaslini - The Complete Recordings on Dischi Della Quercia (1981-85) [FLAC] {Part 2 - 5xCDs}\Giorgio Gaslini Octet - Monodrama (1984)\03 - Risposte Senza Domande.wav
Pre-gap length 0:00:02.00
Peak level 84.5 %
Extraction speed 6.0 X
Track quality 100.0 %
Test CRC A7BFFECF
Copy CRC A7BFFECF
Track not present in AccurateRip database
Copy OK
None of the tracks are present in the AccurateRip database
No errors occurred
End of status report
==== Log checksum C23114AB919E7E110CC522A1D31996E00544395809CAED64DBE27EE3379076C1 ====
 
Содержание индексной карты (.CUE)
REM DISCID 17093C03
REM COMMENT "ExactAudioCopy v1.0b3"
PERFORMER "Giorgio Gaslini Octet"
TITLE "Monodrama"
FILE "01 - Musica Verticale.wav" WAVE
TRACK 01 AUDIO
TITLE "Musica Verticale"
PERFORMER "Giorgio Gaslini Octet"
FLAGS DCP
INDEX 01 00:00:00
TRACK 02 AUDIO
TITLE "Monodrama"
PERFORMER "Giorgio Gaslini Octet"
FLAGS DCP
INDEX 00 07:19:74
FILE "02 - Monodrama.wav" WAVE
INDEX 01 00:00:00
TRACK 03 AUDIO
TITLE "Risposte Senza Domande"
PERFORMER "Giorgio Gaslini Octet"
FLAGS DCP
INDEX 00 14:18:67
FILE "03 - Risposte Senza Domande.wav" WAVE
INDEX 01 00:00:00
 
♦ CD11 - Skies of China (00:50:48)
Треклист:

01. Skies Of China [26:10]
02. Suite Lirica [14:48]
03. Esp Tre [09:49]
 
Лог создания рипа
Exact Audio Copy V1.0 beta 3 from 29. Augu
По всем вопросам пишите личное сообщение пользователю M0p94ok.
23:18
181
Нет комментариев. Ваш будет первым!