Вы используете незарегистрированную версию компонента "Вкладки"!

Поиск

(Free Jazz) [CD] Bob Downes Open Music Trio (Barry Guy, Dennis Smith) - Flashback - 2009, FLAC (tracks+.cue), lossless

(Free Jazz) [CD] Bob Downes Open Music Trio (Barry Guy, Dennis Smith) - Flashback - 2009, FLAC (tracks+.cue), lossless
Треклист:
Bob Downes Open Music Trio / Flashback
Жанр: Free Jazz
Носитель: CD
Страна-производитель диска: Germany
Год издания: 2009
Издатель (лейбл): Openian
Номер по каталогу: BDOM 22809
Аудиокодек: FLAC (*.flac)
Тип рипа: tracks+.cue
Битрейт аудио: lossless
Продолжительность: 65:20
Источник (релизер): whatcd (bemsha)
Наличие сканов в содержимом раздачи: да
Треклист:
01 - Brasilian Beauty
02 - Funky Groove (1)
03 - Funky Groove (2)
04 - Wavelength
05 - Asian Aura
06 - Wailing
07 - Whorefying Experience
08 - Seashore
09 - Maya
10 - Blues Ride
11 - Walkin' Runnin' Man
12 - West Eleven
 
Лог создания рипа
Exact Audio Copy V0.99 prebeta 4 from 23. January 2008
EAC extraction logfile from 25. May 2010, 13:40
Bob Downes Open Music Trio / Flashback
Used drive : _NEC DVD_RW ND-3520A Adapter: 1 ID: 0
Read mode : Secure
Utilize accurate stream : Yes
Defeat audio cache : Yes
Make use of C2 pointers : No
Read offset correction : 48
Overread into Lead-In and Lead-Out : No
Fill up missing offset samples with silence : Yes
Delete leading and trailing silent blocks : No
Null samples used in CRC calculations : Yes
Used interface : Installed external ASPI interface
Gap handling : Appended to previous track
Used output format : User Defined Encoder
Selected bitrate : 1024 kBit/s
Quality : High
Add ID3 tag : No
Command line compressor : C:\Program Files\FLAC\flac.exe
Additional command line options : -8 -V -T "ARTIST=%a" -T "TITLE=%t" -T "ALBUM=%g" -T "DATE=%y" -T "TRACKNUMBER=%n" -T "GENRE=%m" -T "COMMENT=EAC FLAC -8" %s
TOC of the extracted CD
Track | Start | Length | Start sector | End sector
---------------------------------------------------------
1 | 0:00.00 | 3:17.24 | 0 | 14798
2 | 3:17.24 | 10:19.22 | 14799 | 61245
3 | 13:36.46 | 4:04.27 | 61246 | 79572
4 | 17:40.73 | 7:03.58 | 79573 | 111355
5 | 24:44.56 | 2:33.57 | 111356 | 122887
6 | 27:18.38 | 6:10.48 | 122888 | 150685
7 | 33:29.11 | 2:23.16 | 150686 | 161426
8 | 35:52.27 | 5:43.15 | 161427 | 187166
9 | 41:35.42 | 5:55.20 | 187167 | 213811
10 | 47:30.62 | 6:40.07 | 213812 | 243818
11 | 54:10.69 | 7:50.54 | 243819 | 279122
12 | 62:01.48 | 3:18.30 | 279123 | 294002
Track 1
Filename C:\Documents and Settings\All Users\Documents\Uploads\Vibes\Bob Downes Open Music Trio - Flashback (1973) [FLAC] {OPENIAN BDOM 22809}\01 - Brasilian Beauty.wav
Pre-gap length 0:00:02.00
Peak level 95.4 %
Track quality 100.0 %
Test CRC BA19360E
Copy CRC BA19360E
Track not present in AccurateRip database
Copy OK
Track 2
Filename C:\Documents and Settings\All Users\Documents\Uploads\Vibes\Bob Downes Open Music Trio - Flashback (1973) [FLAC] {OPENIAN BDOM 22809}\02 - Funky Groove (1).wav
Peak level 94.1 %
Track quality 99.9 %
Test CRC DF7F15CF
Copy CRC DF7F15CF
Track not present in AccurateRip database
Copy OK
Track 3
Filename C:\Documents and Settings\All Users\Documents\Uploads\Vibes\Bob Downes Open Music Trio - Flashback (1973) [FLAC] {OPENIAN BDOM 22809}\03 - Funky Groove (2).wav
Peak level 94.9 %
Track quality 100.0 %
Test CRC 2E4BE099
Copy CRC 2E4BE099
Track not present in AccurateRip database
Copy OK
Track 4
Filename C:\Documents and Settings\All Users\Documents\Uploads\Vibes\Bob Downes Open Music Trio - Flashback (1973) [FLAC] {OPENIAN BDOM 22809}\04 - Wavelength.wav
Peak level 94.9 %
Track quality 100.0 %
Test CRC 6CC8DBE3
Copy CRC 6CC8DBE3
Track not present in AccurateRip database
Copy OK
Track 5
Filename C:\Documents and Settings\All Users\Documents\Uploads\Vibes\Bob Downes Open Music Trio - Flashback (1973) [FLAC] {OPENIAN BDOM 22809}\05 - Asian Aura.wav
Peak level 94.3 %
Track quality 99.9 %
Test CRC F4E8E563
Copy CRC F4E8E563
Track not present in AccurateRip database
Copy OK
Track 6
Filename C:\Documents and Settings\All Users\Documents\Uploads\Vibes\Bob Downes Open Music Trio - Flashback (1973) [FLAC] {OPENIAN BDOM 22809}\06 - Wailing.wav
Peak level 94.9 %
Track quality 99.9 %
Test CRC 4ABE0A22
Copy CRC 4ABE0A22
Track not present in AccurateRip database
Copy OK
Track 7
Filename C:\Documents and Settings\All Users\Documents\Uploads\Vibes\Bob Downes Open Music Trio - Flashback (1973) [FLAC] {OPENIAN BDOM 22809}\07 - Whorefying Experience.wav
Peak level 94.0 %
Track quality 100.0 %
Test CRC 54BC4023
Copy CRC 54BC4023
Track not present in AccurateRip database
Copy OK
Track 8
Filename C:\Documents and Settings\All Users\Documents\Uploads\Vibes\Bob Downes Open Music Trio - Flashback (1973) [FLAC] {OPENIAN BDOM 22809}\08 - Seashore.wav
Peak level 94.3 %
Track quality 100.0 %
Test CRC C3A719E4
Copy CRC C3A719E4
Track not present in AccurateRip database
Copy OK
Track 9
Filename C:\Documents and Settings\All Users\Documents\Uploads\Vibes\Bob Downes Open Music Trio - Flashback (1973) [FLAC] {OPENIAN BDOM 22809}\09 - Maya.wav
Peak level 95.3 %
Track quality 100.0 %
Test CRC 1EF9C080
Copy CRC 1EF9C080
Track not present in AccurateRip database
Copy OK
Track 10
Filename C:\Documents and Settings\All Users\Documents\Uploads\Vibes\Bob Downes Open Music Trio - Flashback (1973) [FLAC] {OPENIAN BDOM 22809}\10 - Blues Ride.wav
Peak level 94.8 %
Track quality 100.0 %
Test CRC 657C2A0C
Copy CRC 657C2A0C
Track not present in AccurateRip database
Copy OK
Track 11
Filename C:\Documents and Settings\All Users\Documents\Uploads\Vibes\Bob Downes Open Music Trio - Flashback (1973) [FLAC] {OPENIAN BDOM 22809}\11 - Walkin' Runnin' Man.wav
Peak level 95.2 %
Track quality 100.0 %
Test CRC ECD9AACB
Copy CRC ECD9AACB
Track not present in AccurateRip database
Copy OK
Track 12
Filename C:\Documents and Settings\All Users\Documents\Uploads\Vibes\Bob Downes Open Music Trio - Flashback (1973) [FLAC] {OPENIAN BDOM 22809}\12 - West Eleven.wav
Peak level 95.1 %
Track quality 100.0 %
Test CRC B52352B1
Copy CRC B52352B1
Track not present in AccurateRip database
Copy OK
None of the tracks are present in the AccurateRip database
No errors occurred
End of status report
 
Содержание индексной карты (.CUE)
REM DISCID 9F0F500C
REM COMMENT "ExactAudioCopy v0.99pb4"
PERFORMER "Bob Downes Open Music Trio"
TITLE "Flashback"
FILE "01 - Brasilian Beauty.wav" WAVE
TRACK 01 AUDIO
TITLE "Brasilian Beauty"
PERFORMER "Bob Downes Open Music Trio"
FLAGS DCP
INDEX 01 00:00:00
FILE "02 - Funky Groove (1).wav" WAVE
TRACK 02 AUDIO
TITLE "Funky Groove (1)"
PERFORMER "Bob Downes Open Music Trio"
FLAGS DCP
INDEX 01 00:00:00
FILE "03 - Funky Groove (2).wav" WAVE
TRACK 03 AUDIO
TITLE "Funky Groove (2)"
PERFORMER "Bob Downes Open Music Trio"
FLAGS DCP
INDEX 01 00:00:00
FILE "04 - Wavelength.wav" WAVE
TRACK 04 AUDIO
TITLE "Wavelength"
PERFORMER "Bob Downes Open Music Trio"
FLAGS DCP
INDEX 01 00:00:00
FILE "05 - Asian Aura.wav" WAVE
TRACK 05 AUDIO
TITLE "Asian Aura"
PERFORMER "Bob Downes Open Music Trio"
FLAGS DCP
INDEX 01 00:00:00
FILE "06 - Wailing.wav" WAVE
TRACK 06 AUDIO
TITLE "Wailing"
PERFORMER "Bob Downes Open Music Trio"
FLAGS DCP
INDEX 01 00:00:00
FILE "07 - Whorefying Experience.wav" WAVE
TRACK 07 AUDIO
TITLE "Whorefying Experience"
PERFORMER "Bob Downes Open Music Trio"
FLAGS DCP
INDEX 01 00:00:00
FILE "08 - Seashore.wav" WAVE
TRACK 08 AUDIO
TITLE "Seashore"
PERFORMER "Bob Downes Open Music Trio"
FLAGS DCP
INDEX 01 00:00:00
FILE "09 - Maya.wav" WAVE
TRACK 09 AUDIO
TITLE "Maya"
PERFORMER "Bob Downes Open Music Trio"
FLAGS DCP
INDEX 01 00:00:00
FILE "10 - Blues Ride.wav" WAVE
TRACK 10 AUDIO
TITLE "Blues Ride"
PERFORMER "Bob Downes Open Music Trio"
FLAGS DCP
INDEX 01 00:00:00
FILE "11 - Walkin' Runnin' Man.wav" WAVE
TRACK 11 AUDIO
TITLE "Walkin' Runnin' Man"
PERFORMER "Bob Downes Open Music Trio"
FLAGS DCP
INDEX 01 00:00:00
FILE "12 - West Eleven.wav" WAVE
TRACK 12 AUDIO
TITLE "West Eleven"
PERFORMER "Bob Downes Open Music Trio"
FLAGS DCP
INDEX 01 00:00:00
Доп. информация: Tracks 1-6: 1973 Rehearsal at Openian Studios, London
Tracks 7-9: 1973 Rehearsal at The Gardner Centre, Brighton, England
Tracks 10-12: 1971 At the opening of an art exhibition, London
 
Об альбоме (сборнике)
Bob Downes may be a name unfamiliar to many, but to some his name is synonymous with an electrifying period in British jazz. Downes was on the cusp of this new movement and recorded some idiosyncratic albums between 1969 and 1970. Deep Down Heavy was almost a rock album, whereas the as yet un-reissued Open Music recorded for Philips was much nearer to the free jazz genre. Two others were Diversions a trio album (for his own label Openian) and the more rock infused Electric City on Vertigo. This last album employed a host of well-known British jazz musicians including Ian Carr, Kenny Wheeler, Harry Beckett and Ray Russell. But it was his trio work that was the most intriguing.
Flashback is a mixture of rehearsal and live recordings made in 1973 in various locations, so the sound quality is never quite up to studio par. However, the compositions and performances more than compensate for this. The mood here is one of pulsating, rhythmic energy, not free enough to lose rock audiences and never clichéd enough to alienate jazz audiences. Of particular note here is the way in which multi instrumentalist Downes (whose main instruments are flute, reeds and vocals) gels with bass virtuoso Barry Guy along with Denis Smith on drums. The fiery and spontaneous execution of the pieces is reminiscent of Rahsaan Roland Kirk, Albert Ayler or even Sonny Rollins (on "West Eleven").
Guy's bass work on "Seashore" is stunning and he plays some terrific bass guitar on "Maya," essential listening since Guy virtually never plays electric bass. Flashback which Downes has made available on Openian (the first jazz album on his label in 35 years) is a fascinating piece of jazz history that should be savored. Although Downes no longer performs in public, this truly engaging set of recordings is a testament to the really exciting sound of his open music.
Track Listing: Brasilian Beauty; Funky Groove(I); Funky Groove (II); Wavelength; Asian Aura; Wailing; Whorefying Experience; Seashore; Maya; Blues Ride; Walkin' Runnin' Man; West Eleven.
 
Состав
Bob Downes - saxes, flutes, vocals
Barry Guy - bass
Dennis Smith - drums
По всем вопросам пишите личное сообщение пользователю M0p94ok.
06:12
169
Нет комментариев. Ваш будет первым!