Вы используете незарегистрированную версию компонента "Вкладки"!

Поиск

(Free Jazz) [CD] Bob Downes Open Music (Paul Rutherford, Brian Gooding, Paul Bridge, Denis Smith) - New York Suite - 2011, FLAC (tracks+.cue), lossless

(Free Jazz) [CD] Bob Downes Open Music (Paul Rutherford, Brian Gooding, Paul Bridge, Denis Smith) - New York Suite - 2011, FLAC (tracks+.cue), lossless
Треклист:
Bob Downes Open Music / New York Suite
Жанр: Free Jazz
Носитель: CD
Страна-производитель диска: Germany
Год издания: 2011
Издатель (лейбл): Openium
Номер по каталогу: BDOM 91011
Аудиокодек: FLAC (*.flac)
Тип рипа: tracks+.cue
Битрейт аудио: lossless
Продолжительность: 58:49
Источник (релизер): whatcd (bemsha)
Наличие сканов в содержимом раздачи: да
Треклист:
01 - Skywalkers
02 - Coke
03 - Cuban Chinese
04 - Cops
05 - Times Square
06 - Harlem Blues
07 - The Chase
08 - Do Not Enter
09 - 39 Street
10 - Now You See It, Now You Don't
11 - Shucks
12 - New York City
 
Лог создания рипа
Exact Audio Copy V1.0 beta 3 from 29. August 2011
EAC extraction logfile from 1. November 2011, 10:55
Bob Downes / New York Suite
Used drive : ATAPI DVD A DH16ABSH Adapter: 2 ID: 1
Read mode : Secure
Utilize accurate stream : Yes
Defeat audio cache : Yes
Make use of C2 pointers : No
Read offset correction : 6
Overread into Lead-In and Lead-Out : No
Fill up missing offset samples with silence : Yes
Delete leading and trailing silent blocks : No
Null samples used in CRC calculations : Yes
Used interface : Native Win32 interface for Win NT & 2000
Gap handling : Appended to previous track
Used output format : User Defined Encoder
Selected bitrate : 768 kBit/s
Quality : High
Add ID3 tag : No
Command line compressor : C:\Program Files (x86)\Exact Audio Copy\FLAC\FLAC.EXE
Additional command line options : -6 -V -T "ARTIST=%artist%" -T "TITLE=%title%" -T "ALBUM=%albumtitle%" -T "DATE=%year%" -T "TRACKNUMBER=%tracknr%" -T "GENRE=%genre%" -T "COMMENT=%comment%" -T "BAND=%albuminterpret%" -T "ALBUMARTIST=%albuminterpret%" -T "COMPOSER=%composer%" %haslyrics%--tag-from-file=LYRICS="%lyricsfile%"%haslyrics% -T "DISCNUMBER=%cdnumber%" -T "TOTALDISCS=%totalcds%" -T "TOTALTRACKS=%numtracks%" %hascover%--picture="%coverfile%"%hascover% %source% -o %dest%
TOC of the extracted CD
Track | Start | Length | Start sector | End sector
---------------------------------------------------------
1 | 0:00.00 | 7:00.67 | 0 | 31566
2 | 7:00.67 | 3:57.33 | 31567 | 49374
3 | 10:58.25 | 4:50.58 | 49375 | 71182
4 | 15:49.08 | 2:57.13 | 71183 | 84470
5 | 18:46.21 | 4:30.55 | 84471 | 104775
6 | 23:17.01 | 5:34.74 | 104776 | 129899
7 | 28:52.00 | 4:52.33 | 129900 | 151832
8 | 33:44.33 | 5:21.71 | 151833 | 175978
9 | 39:06.29 | 2:34.22 | 175979 | 187550
10 | 41:40.51 | 11:04.35 | 187551 | 237385
11 | 52:45.11 | 3:01.36 | 237386 | 250996
12 | 55:46.47 | 3:02.50 | 250997 | 264696
Track 1
Filename C:\Users\owner\Uploads\Vibes\Bob Downes - New York Suite (1979) [FLAC]\01 - Skywalkers.wav
Pre-gap length 0:00:02.00
Peak level 97.7 %
Extraction speed 3.9 X
Track quality 100.0 %
Test CRC A2BBFEAC
Copy CRC A2BBFEAC
Track not present in AccurateRip database
Copy OK
Track 2
Filename C:\Users\owner\Uploads\Vibes\Bob Downes - New York Suite (1979) [FLAC]\02 - Coke.wav
Peak level 97.7 %
Extraction speed 4.2 X
Track quality 100.0 %
Test CRC 73AC4EA3
Copy CRC 73AC4EA3
Track not present in AccurateRip database
Copy OK
Track 3
Filename C:\Users\owner\Uploads\Vibes\Bob Downes - New York Suite (1979) [FLAC]\03 - Cuban Chinese.wav
Peak level 97.7 %
Extraction speed 4.7 X
Track quality 100.0 %
Test CRC D91B3940
Copy CRC D91B3940
Track not present in AccurateRip database
Copy OK
Track 4
Filename C:\Users\owner\Uploads\Vibes\Bob Downes - New York Suite (1979) [FLAC]\04 - Cops.wav
Peak level 97.7 %
Extraction speed 4.6 X
Track quality 100.0 %
Test CRC 86585293
Copy CRC 86585293
Track not present in AccurateRip database
Copy OK
Track 5
Filename C:\Users\owner\Uploads\Vibes\Bob Downes - New York Suite (1979) [FLAC]\05 - Times Square.wav
Peak level 97.7 %
Extraction speed 5.1 X
Track quality 100.0 %
Test CRC 04B131B0
Copy CRC 04B131B0
Track not present in AccurateRip database
Copy OK
Track 6
Filename C:\Users\owner\Uploads\Vibes\Bob Downes - New York Suite (1979) [FLAC]\06 - Harlem Blues.wav
Peak level 91.4 %
Extraction speed 4.7 X
Track quality 99.9 %
Test CRC FAFB7055
Copy CRC FAFB7055
Track not present in AccurateRip database
Copy OK
Track 7
Filename C:\Users\owner\Uploads\Vibes\Bob Downes - New York Suite (1979) [FLAC]\07 - The Chase.wav
Peak level 97.7 %
Extraction speed 5.8 X
Track quality 100.0 %
Test CRC 50AF313A
Copy CRC 50AF313A
Track not present in AccurateRip database
Copy OK
Track 8
Filename C:\Users\owner\Uploads\Vibes\Bob Downes - New York Suite (1979) [FLAC]\08 - Do Not Enter.wav
Peak level 97.7 %
Extraction speed 6.0 X
Track quality 100.0 %
Test CRC 8249DA88
Copy CRC 8249DA88
Track not present in AccurateRip database
Copy OK
Track 9
Filename C:\Users\owner\Uploads\Vibes\Bob Downes - New York Suite (1979) [FLAC]\09 - 39 Street.wav
Peak level 97.7 %
Extraction speed 5.5 X
Track quality 100.0 %
Test CRC 666AB1B3
Copy CRC 666AB1B3
Track not present in AccurateRip database
Copy OK
Track 10
Filename C:\Users\owner\Uploads\Vibes\Bob Downes - New York Suite (1979) [FLAC]\10 - Now You See It, Now You Don't.wav
Peak level 97.7 %
Extraction speed 7.1 X
Track quality 100.0 %
Test CRC CEE62C5A
Copy CRC CEE62C5A
Track not present in AccurateRip database
Copy OK
Track 11
Filename C:\Users\owner\Uploads\Vibes\Bob Downes - New York Suite (1979) [FLAC]\11 - Shucks.wav
Peak level 97.7 %
Extraction speed 6.3 X
Track quality 100.0 %
Test CRC BA83FD6A
Copy CRC BA83FD6A
Track not present in AccurateRip database
Copy OK
Track 12
Filename C:\Users\owner\Uploads\Vibes\Bob Downes - New York Suite (1979) [FLAC]\12 - New Yoek City.wav
Peak level 97.7 %
Extraction speed 6.5 X
Track quality 100.0 %
Test CRC ABCD7F93
Copy CRC ABCD7F93
Track not present in AccurateRip database
Copy OK
None of the tracks are present in the AccurateRip database
No errors occurred
End of status report
==== Log checksum 3CEA475383422984CFD584F010CDF057C6F6796D6479F19276B717578DFC6C59 ====
 
Содержание индексной карты (.CUE)
REM DISCID 9D0DC90C
REM COMMENT "ExactAudioCopy v1.0b3"
PERFORMER "Bob Downes"
TITLE "New York Suite"
FILE "01 - Skywalkers.wav" WAVE
TRACK 01 AUDIO
TITLE "Skywalkers"
PERFORMER "Bob Downes"
INDEX 01 00:00:00
FILE "02 - Coke.wav" WAVE
TRACK 02 AUDIO
TITLE "Coke"
PERFORMER "Bob Downes"
INDEX 01 00:00:00
FILE "03 - Cuban Chinese.wav" WAVE
TRACK 03 AUDIO
TITLE "Cuban Chinese"
PERFORMER "Bob Downes"
INDEX 01 00:00:00
FILE "04 - Cops.wav" WAVE
TRACK 04 AUDIO
TITLE "Cops"
PERFORMER "Bob Downes"
INDEX 01 00:00:00
FILE "05 - Times Square.wav" WAVE
TRACK 05 AUDIO
TITLE "Times Square"
PERFORMER "Bob Downes"
INDEX 01 00:00:00
FILE "06 - Harlem Blues.wav" WAVE
TRACK 06 AUDIO
TITLE "Harlem Blues"
PERFORMER "Bob Downes"
INDEX 01 00:00:00
FILE "07 - The Chase.wav" WAVE
TRACK 07 AUDIO
TITLE "The Chase"
PERFORMER "Bob Downes"
INDEX 01 00:00:00
FILE "08 - Do Not Enter.wav" WAVE
TRACK 08 AUDIO
TITLE "Do Not Enter"
PERFORMER "Bob Downes"
INDEX 01 00:00:00
FILE "09 - 39 Street.wav" WAVE
TRACK 09 AUDIO
TITLE "39 Street"
PERFORMER "Bob Downes"
INDEX 01 00:00:00
FILE "10 - Now You See It, Now You Don't.wav" WAVE
TRACK 10 AUDIO
TITLE "Now You See It, Now You Don't"
PERFORMER "Bob Downes"
INDEX 01 00:00:00
FILE "11 - Shucks.wav" WAVE
TRACK 11 AUDIO
TITLE "Shucks"
PERFORMER "Bob Downes"
INDEX 01 00:00:00
FILE "12 - New Yoek City.wav" WAVE
TRACK 12 AUDIO
TITLE "New Yoek City"
PERFORMER "Bob Downes"
INDEX 01 00:00:00
Доп. информация: Recorded: 1979, London
 
Состав
Bob Downes - contrabass flute, bass flute, alto flute, bamboo flute, tenor & alto sax, vocals
Paul Rutherford - trombone
Brian Gooding - guitar, synth
Paul Bridge - bass
Denis Smith - drums
По всем вопросам пишите личное сообщение пользователю M0p94ok.
06:13
179
Нет комментариев. Ваш будет первым!