Вы используете незарегистрированную версию компонента "Вкладки"!

Поиск

(Free Jazz) [CD] Archie Shepp & Horace Parlan - Goin' Home (1977) - 1988, FLAC (image+.cue), lossless

(Free Jazz) [CD] Archie Shepp & Horace Parlan - Goin' Home (1977) - 1988, FLAC (image+.cue), lossless
Треклист:
Archie Shepp & Horace Parlan - Goin' Home (1977)
Жанр: Free Jazz
Носитель: CD
Год издания: 1988
Издатель (лейбл): SteepleChase
Номер по каталогу: SCCD-31079
Аудиокодек: FLAC (*.flac)
Тип рипа: image+.cue
Битрейт аудио: lossless
Продолжительность: 51:15
Rip by RunawayTrane
Наличие сканов в содержимом раздачи: нет
Треклист:
01. Goin' Home (6:11)
02. Nobody Knows The Troubles I've Seen (4:43)
03. Go Down Moses (4:21)
04. Steal Away To Jesus (6:14)
05. Deep River (4:51)
06. My Lord What A Morning (4:40)
07. Amazing Grace (4:23)
08. Sometimes I Feel Like A Motherless Child (5:20)
09. Swing Low, Sweet Chariot (2:44)
10. Come Sunday (7:48)
Personnel:
Archie Shepp - ss, ts, arr
Horace Parlan - p
Rec.: Sweet Silence Studios, Copenhagen, April 25, 1977.
На замену http://rutracker.org/forum/viewtopic.php?t=689128
 
 
Лог создания рипа
Exact Audio Copy V1.0 beta 3 from 29. August 2011
EAC extraction logfile from 23. September 2014, 12:57
Archie Shepp & Horace Parlan / Goin' Home
Used drive : Memorex 52MAXX 3252AJ1 Adapter: 1 ID: 0
Read mode : Secure
Utilize accurate stream : Yes
Defeat audio cache : Yes
Make use of C2 pointers : No
Read offset correction : 6
Overread into Lead-In and Lead-Out : No
Fill up missing offset samples with silence : Yes
Delete leading and trailing silent blocks : No
Null samples used in CRC calculations : Yes
Used interface : Native Win32 interface for Win NT & 2000
Used output format : User Defined Encoder
Selected bitrate : 1024 kBit/s
Quality : High
Add ID3 tag : No
Command line compressor : C:\Program Files (x86)\Exact Audio Copy\Flac\flac.exe
Additional command line options : %ishigh%-V -p -l 12 -b 4096 -m -e -r 8%ishigh%%islow%-5%islow% --replay-gain -T "ARTIST=%artist%" -T "ALBUM=%albumtitle%" -T "TITLE=%title%" -T "DATE=%year%" -T "TRACKNUMBER=%tracknr%" -T "GENRE=%genre%" -T "ENSEMBLE=%albuminterpret%" -T "ALBUMARTIST=%albumartist%" -T "COMPOSER=%albumcomposer%" -T "DISCNUMBER=%cdnumber%" -T "TOTALDISCS=%totalcds%" -T "TOTALTRACKS=%numtracks%" -T "SOURCEMEDIA=CD" -T "COMMENT=%comment%" %hascover%-T "PICTURE=%coverfile%"%hascover% %source%
TOC of the extracted CD
Track | Start | Length | Start sector | End sector
---------------------------------------------------------
1 | 0:00.33 | 6:10.45 | 33 | 27827
2 | 6:11.03 | 4:43.17 | 27828 | 49069
3 | 10:54.20 | 4:21.03 | 49070 | 68647
4 | 15:15.23 | 6:14.25 | 68648 | 96722
5 | 21:29.48 | 4:51.22 | 96723 | 118569
6 | 26:20.70 | 4:40.03 | 118570 | 139572
7 | 31:00.73 | 4:22.42 | 139573 | 159264
8 | 35:23.40 | 5:20.35 | 159265 | 183299
9 | 40:44.00 | 2:43.43 | 183300 | 195567
10 | 43:27.43 | 7:47.71 | 195568 | 230663
Range status and errors
Selected range
Filename C:\Users\M@ce\Music\Archives\Rips\Archie Shepp & Horace Parlan - Goin' Home.wav
Peak level 85.3 %
Extraction speed 8.5 X
Range quality 100.0 %
Test CRC C241C9C9
Copy CRC C241C9C9
Copy OK
No errors occurred
AccurateRip summary
Track 1 accurately ripped (confidence 1) [174276FA] (AR v1)
Track 2 accurately ripped (confidence 1) [FDDF8C8C] (AR v1)
Track 3 accurately ripped (confidence 1) [0CA047F9] (AR v1)
Track 4 accurately ripped (confidence 1) [2A12EFBB] (AR v1)
Track 5 accurately ripped (confidence 1) [F940BBC3] (AR v1)
Track 6 accurately ripped (confidence 1) [3B3DB658] (AR v1)
Track 7 accurately ripped (confidence 1) [3D18202E] (AR v1)
Track 8 accurately ripped (confidence 1) [12B61896] (AR v1)
Track 9 accurately ripped (confidence 1) [8C63882E] (AR v1)
Track 10 accurately ripped (confidence 1) [EB14D7A5] (AR v1)
All tracks accurately ripped
End of status report
---- CUETools DB Plugin V2.1.4
[CTDB TOCID: hz1kGDrxVKoyiFgjZTZRvLgKRNg-] found
Submit result: hz1kGDrxVKoyiFgjZTZRvLgKRNg- has been uploaded
Track | CTDB Status
1 | (0/1) No match
2 | (1/1) Accurately ripped
3 | (1/1) Accurately ripped
4 | (1/1) Accurately ripped
5 | (1/1) Accurately ripped
6 | (1/1) Accurately ripped
7 | (1/1) Accurately ripped
8 | (1/1) Accurately ripped
9 | (1/1) Accurately ripped
10 | (1/1) Accurately ripped
==== Log checksum 98AADAE0C67B39003FA3F81134CDC37A1222BC49A98CA5A9C8E14E255A9E045D ====
 
Содержание индексной карты (.CUE)
REM GENRE Jazz
REM DATE 1977
REM DISCID 8A0C030A
REM COMMENT "ExactAudioCopy v1.0b3"
PERFORMER "Archie Shepp & Horace Parlan"
TITLE "Goin' Home"
FILE "Archie Shepp & Horace Parlan - Goin' Home.flac" WAVE
TRACK 01 AUDIO
TITLE "Goin' Home"
PERFORMER "Archie Shepp & Horace Parlan"
INDEX 00 00:00:00
INDEX 01 00:00:33
TRACK 02 AUDIO
TITLE "Nobody Knows The Troubles I've Seen"
PERFORMER "Archie Shepp & Horace Parlan"
INDEX 00 06:10:18
INDEX 01 06:11:03
TRACK 03 AUDIO
TITLE "Go Down Moses"
PERFORMER "Archie Shepp & Horace Parlan"
INDEX 00 10:52:65
INDEX 01 10:54:20
TRACK 04 AUDIO
TITLE "Steal Away To Jesus"
PERFORMER "Archie Shepp & Horace Parlan"
INDEX 00 15:13:73
INDEX 01 15:15:23
TRACK 05 AUDIO
TITLE "Deep River"
PERFORMER "Archie Shepp & Horace Parlan"
INDEX 00 21:28:58
INDEX 01 21:29:48
TRACK 06 AUDIO
TITLE "My Lord What A Morning"
PERFORMER "Archie Shepp & Horace Parlan"
INDEX 00 26:19:65
INDEX 01 26:20:70
TRACK 07 AUDIO
TITLE "Amazing Grace"
PERFORMER "Archie Shepp & Horace Parlan"
INDEX 00 31:00:05
INDEX 01 31:00:73
TRACK 08 AUDIO
TITLE "Sometimes I Feel Like A Motherless Child"
PERFORMER "Archie Shepp & Horace Parlan"
INDEX 00 35:22:73
INDEX 01 35:23:40
TRACK 09 AUDIO
TITLE "Swing Low, Sweet Chariot"
PERFORMER "Archie Shepp & Horace Parlan"
INDEX 00 40:43:05
INDEX 01 40:44:00
TRACK 10 AUDIO
TITLE "Come Sunday "
PERFORMER "Archie Shepp & Horace Parlan"
INDEX 00 43:25:45
INDEX 01 43:27:43
 
CUETools log
[CUETools log; Date: 16.12.2014 2:43:07; Version: 2.0.9]
Pregap length 00:00:33.
[AccurateRip ID: 00135dfa-009999a5-8a0c030a] found.
Track [ CRC ] Status
01 [174276fa] (1/2) Accurately ripped
02 [fddf8c8c] (1/2) Accurately ripped
03 [0ca047f9] (1/2) Accurately ripped
04 [2a12efbb] (1/2) Accurately ripped
05 [f940bbc3] (1/2) Accurately ripped
06 [3b3db658] (1/2) Accurately ripped
07 [3d18202e] (1/2) Accurately ripped
08 [12b61896] (1/2) Accurately ripped
09 [8c63882e] (1/2) Accurately ripped
10 [eb14d7a5] (1/2) Accurately ripped
Track Peak [ CRC32 ] [W/O NULL] [ LOG ]
-- 85,3 [C241C9C9] [17218EFF] CRC32
01 84,2 [3D372AAC] [D0B9C00B]
02 65,5 [F9805389] [0F177853]
03 70,7 [427DEC3E] [16C92007]
04 68,0 [BFF6B82D] [769853B9]
05 72,6 [664C599E] [641FB103]
06 67,4 [17A858FA] [7CB6A5EF]
07 61,2 [39437E2A] [7FA10254]
08 74,1 [433F503F] [3886AEE8]
09 85,3 [58C4F166] [37CF8432]
10 64,3 [3CB77110] [94517B87]
По всем вопросам пишите личное сообщение пользователю M0p94ok.
07:15
303
Нет комментариев. Ваш будет первым!