Поиск

(Free Improvisation) [CD] Fabio Martini - Circadiana (Luca Venitucci, Massimo Falascone, Giancarlo Locatelli, Tito Mangialajo Rantzer, Angelo Avogadri, Marina Ciccarelli, Filippo Monico) - Clangori - 1998, FLAC (tracks+.cue), lossless

(Free Improvisation) [CD] Fabio Martini - Circadiana (Luca Venitucci, Massimo Falascone, Giancarlo Locatelli, Tito Mangialajo Rantzer, Angelo Avogadri, Marina Ciccarelli, Filippo Monico) - Clangori - 1998, FLAC (tracks+.cue), lossless
Треклист:
Fabio Martini - Circadiana / Clangori
Жанр: Free Improvisation
Носитель: CD
Страна-производитель диска (релиза): UK
Год издания: 1998
Издатель (лейбл): Leo Lab
Номер по каталогу: CD 045
Аудиокодек: FLAC (*.flac)
Тип рипа: tracks+.cue
Битрейт аудио: lossless
Продолжительность: 65:36
Источник (релизер): cd
Наличие сканов в содержимом раздачи: нет
Треклист:
1 In-Setti 9:00
2 Manhunt 5:03
3 The Nerve Section 5:13
4 Øster 28 8:29
5 Zi-Zi Stars 5:58
6 Rouge 6:33
7 Di-Visioni 5:54
8 Hoo-Doo 6:57
9 Paaahh 6:31
10 De-Finendo 5:54
 
Лог создания рипа
Exact Audio Copy V1.0 beta 3 from 29. August 2011
EAC extraction logfile from 14. December 2014, 14:52
Fabio Martini Circadiana / Clangori
Used drive : ASUS DRW-24F1ST a Adapter: 0 ID: 0
Read mode : Secure
Utilize accurate stream : Yes
Defeat audio cache : Yes
Make use of C2 pointers : No
Read offset correction : 6
Overread into Lead-In and Lead-Out : No
Fill up missing offset samples with silence : Yes
Delete leading and trailing silent blocks : No
Null samples used in CRC calculations : Yes
Used interface : Native Win32 interface for Win NT & 2000
Gap handling : Appended to previous track
Used output format : User Defined Encoder
Selected bitrate : 320 kBit/s
Quality : High
Add ID3 tag : No
Command line compressor : D:\Programs\Exact Audio Copy\Flac\flac.exe
Additional command line options : -V -8 -T "Genre=%genre%" -T "Artist=%artist%" -T "Title=%title%" -T "Album=%albumtitle%" -T "Date=%year%" -T "Tracknumber=%tracknr%" -T "Comment=%comment%" %source%
TOC of the extracted CD
Track | Start | Length | Start sector | End sector
---------------------------------------------------------
1 | 0:00.00 | 9:00.32 | 0 | 40531
2 | 9:00.32 | 5:03.14 | 40532 | 63270
3 | 14:03.46 | 5:13.06 | 63271 | 86751
4 | 19:16.52 | 8:29.34 | 86752 | 124960
5 | 27:46.11 | 5:58.64 | 124961 | 151874
6 | 33:45.00 | 6:33.56 | 151875 | 181405
7 | 40:18.56 | 5:54.56 | 181406 | 208011
8 | 46:13.37 | 6:57.23 | 208012 | 239309
9 | 53:10.60 | 6:31.50 | 239310 | 268684
10 | 59:42.35 | 5:54.12 | 268685 | 295246
Track 1
Filename D:\EAC\01 In-Setti.wav
Pre-gap length 0:00:02.00
Peak level 98.8 %
Extraction speed 5.2 X
Track quality 100.0 %
Test CRC D0485903
Copy CRC D0485903
Copy OK
Track 2
Filename D:\EAC\02 Manhunt.wav
Pre-gap length 0:00:03.44
Peak level 90.1 %
Extraction speed 5.7 X
Track quality 100.0 %
Test CRC FC183DD7
Copy CRC FC183DD7
Copy OK
Track 3
Filename D:\EAC\03 The Nerve Section.wav
Pre-gap length 0:00:02.74
Peak level 98.9 %
Extraction speed 5.6 X
Track quality 99.9 %
Test CRC 5E61FE4E
Copy CRC 5E61FE4E
Copy OK
Track 4
Filename D:\EAC\04 Oster 28.wav
Pre-gap length 0:00:02.51
Peak level 98.8 %
Extraction speed 7.2 X
Track quality 100.0 %
Test CRC 14E8432C
Copy CRC 14E8432C
Copy OK
Track 5
Filename D:\EAC\05 Zi-Zi Stars.wav
Pre-gap length 0:00:03.04
Peak level 99.2 %
Extraction speed 7.5 X
Track quality 100.0 %
Test CRC 6F329A9D
Copy CRC 6F329A9D
Copy OK
Track 6
Filename D:\EAC\06 Rouge.wav
Pre-gap length 0:00:02.41
Peak level 88.1 %
Extraction speed 7.3 X
Track quality 99.9 %
Test CRC BAC99A33
Copy CRC BAC99A33
Copy OK
Track 7
Filename D:\EAC\07 Di-Visioni.wav
Pre-gap length 0:00:03.13
Peak level 98.8 %
Extraction speed 8.3 X
Track quality 100.0 %
Test CRC DB4CA266
Copy CRC DB4CA266
Copy OK
Track 8
Filename D:\EAC\08 Hoo-Doo.wav
Pre-gap length 0:00:02.31
Peak level 41.0 %
Extraction speed 8.1 X
Track quality 99.9 %
Test CRC 0D25B0D8
Copy CRC 0D25B0D8
Copy OK
Track 9
Filename D:\EAC\09 Paaahh.wav
Pre-gap length 0:00:02.38
Peak level 96.6 %
Extraction speed 9.1 X
Track quality 100.0 %
Test CRC EB663296
Copy CRC EB663296
Copy OK
Track 10
Filename D:\EAC\10 De-Finendo.wav
Pre-gap length 0:00:02.50
Peak level 96.1 %
Extraction speed 9.4 X
Track quality 100.0 %
Test CRC 2B39B2BC
Copy CRC 2B39B2BC
Copy OK
No errors occurred
End of status report
==== Log checksum C92C81BB453618DECDD133B300895883A4E4F8196D3676B68B0C0298C3F2BD8E ====
 
Содержание индексной карты (.CUE)
REM GENRE Jazz
REM DATE 1998
REM DISCID 8D0F600A
REM COMMENT "ExactAudioCopy v1.0b3"
CATALOG 0000000000000
PERFORMER "Fabio Martini Circadiana"
TITLE "Clangori"
FILE "01 In-Setti.wav" WAVE
TRACK 01 AUDIO
TITLE "In-Setti"
PERFORMER "Fabio Martini Circadiana"
FLAGS DCP
INDEX 01 00:00:00
TRACK 02 AUDIO
TITLE "Manhunt"
PERFORMER "Fabio Martini Circadiana"
FLAGS DCP
INDEX 00 08:56:63
FILE "02 Manhunt.wav" WAVE
INDEX 01 00:00:00
TRACK 03 AUDIO
TITLE "The Nerve Section"
PERFORMER "Fabio Martini Circadiana"
FLAGS DCP
INDEX 00 05:00:15
FILE "03 The Nerve Section.wav" WAVE
INDEX 01 00:00:00
TRACK 04 AUDIO
TITLE "Oster 28"
PERFORMER "Fabio Martini Circadiana"
FLAGS DCP
INDEX 00 05:10:30
FILE "04 Oster 28.wav" WAVE
INDEX 01 00:00:00
TRACK 05 AUDIO
TITLE "Zi-Zi Stars"
PERFORMER "Fabio Martini Circadiana"
FLAGS DCP
INDEX 00 08:26:30
FILE "05 Zi-Zi Stars.wav" WAVE
INDEX 01 00:00:00
TRACK 06 AUDIO
TITLE "Rouge"
PERFORMER "Fabio Martini Circadiana"
FLAGS DCP
INDEX 00 05:56:23
FILE "06 Rouge.wav" WAVE
INDEX 01 00:00:00
TRACK 07 AUDIO
TITLE "Di-Visioni"
PERFORMER "Fabio Martini Circadiana"
FLAGS DCP
INDEX 00 06:30:43
FILE "07 Di-Visioni.wav" WAVE
INDEX 01 00:00:00
TRACK 08 AUDIO
TITLE "Hoo-Doo"
PERFORMER "Fabio Martini Circadiana"
FLAGS DCP
INDEX 00 05:52:25
FILE "08 Hoo-Doo.wav" WAVE
INDEX 01 00:00:00
TRACK 09 AUDIO
TITLE "Paaahh"
PERFORMER "Fabio Martini Circadiana"
FLAGS DCP
INDEX 00 06:54:60
FILE "09 Paaahh.wav" WAVE
INDEX 01 00:00:00
TRACK 10 AUDIO
TITLE "De-Finendo"
PERFORMER "Fabio Martini Circadiana"
FLAGS DCP
INDEX 00 06:29:00
FILE "10 De-Finendo.wav" WAVE
INDEX 01 00:00:00
Доп. информация: Recorded January 6 and June 15, 1997, at Filippo Monico Cellar, Milan.
 
Об альбоме (сборнике)
Eschewing the common Italian propensity for melody -- even in free music contexts -- clarinetist Fabio Martini leads a hand-picked nine- to eleven-piece ensemble through ten selections of abstract, atonal, and disjointed improvisations. While Martini is clearly a talented leader, organizer, and instrumentalist, the music wears thin after awhile, in part due to the tedium of the constantly scraping, twisted little sounds. There are snatches of extraordinary playing, but they come and go before they have the chance to fully develop. Constantly fading in and out, there are strong and sometimes exuberant contributions from trombonist Marina Ciccarelli, percussionists Filippo Monico and Fabrizio Spera, and saxophonist Massimo Falascone. Very much part of the "scratch and sniff" style of avant-garde jazz, Clangori is best listened to in bits and pieces.
 
Состав
Accordion, Electronics [Devices] – Luca Venitucci
Alto Saxophone, Sopranino Saxophone, Baritone Saxophone – Massimo Falascone
Clarinet [Bb], Alto Clarinet, Bass Clarinet – Giancarlo Locatelli
Clarinet [Bb], Liner Notes, Design Concept [Booklet Concept] – Fabio Martini
Double Bass – Tito Mangialajo Rantzer
Electric Guitar – Angelo Avogadri
Percussion – Filippo Monico
Percussion, Performer [Amplified Objects] – Fabrizio Spera
Trombone – Marina Ciccarelli
По всем вопросам пишите личное сообщение пользователю M0p94ok.
07:16
199
Нет комментариев. Ваш будет первым!