Вы используете незарегистрированную версию компонента "Вкладки"!

Поиск

(free jazz) [cd] Anthony Braxton & David Rosenboom - Two Lines (1995), FLAC (tracks+.cue), lossless

(free jazz) [cd] Anthony Braxton & David Rosenboom - Two Lines (1995), FLAC (tracks+.cue), lossless
Треклист:
(free jazz) [cd] Anthony Braxton & David Rosenboom - Two Lines (1995), FLAC (tracks+.cue), lossless


Anthony Braxton & David Rosenboom - Two Lines (1995)

Жанр: free jazz
Год выпуска: 1995
Издатель (лейбл):Lovely Music / LCD3071
Формат: FLAC (tracks+.cue)
Битрейт аудио: lossless
Продолжительность 1`11`46
Источник: what.cd

tracks

1 Lineage 8:29
2 Enactment 9:15
3 Two Lines 26:22
4 Transfiguration 12:30
5 Transference 14:52


 
.log
X Lossless Decoder version 20131102 (145.0)
XLD extraction logfile from 2013-12-01 02:36:16 -0500
Anthony Braxton & David Rosenboom / Two Lines
Used drive : MATSHITA DVD-R UJ-8A8 (revision HA13)
Media type : Pressed CD
Ripper mode : XLD Secure Ripper
Disable audio cache : OK for the drive with a cache less than 1375KiB
Make use of C2 pointers : NO
Read offset correction : 102
Max retry count : 20
Gap status : Analyzed, Appended (except HTOA)
TOC of the extracted CD
Track | Start | Length | Start sector | End sector
---------------------------------------------------------
1 | 00:00:00 | 08:33:30 | 0 | 38504
2 | 08:33:30 | 09:18:30 | 38505 | 80384
3 | 17:51:60 | 26:26:65 | 80385 | 199399
4 | 44:18:50 | 12:33:65 | 199400 | 255939
5 | 56:52:40 | 14:53:25 | 255940 | 322939
AccurateRip Summary (DiscID: 000db092-00421e32-3210d105)
Track 01 : OK (v1, confidence 1/1)
Track 02 : OK (v1, confidence 1/1)
Track 03 : OK (v1, confidence 1/1)
Track 04 : OK (v1, confidence 1/1)
Track 05 : OK (v1, confidence 1/1)
->All tracks accurately ripped.
All Tracks
Album gain : -0.93 dB
Peak : 0.942078
Statistics
Read error : 0
Jitter error (maybe fixed) : 0
Retry sector count : 0
Damaged sector count : 0
Track 01
Filename : /Users/ho2075/Desktop/01 Anthony Braxton & David Rosenboom - Lineage.flac
Pre-gap length : 00:02:00
Track gain : -1.29 dB
Peak : 0.925354
CRC32 hash (test run) : B0769029
CRC32 hash : B0769029
CRC32 hash (skip zero) : BAF822D3
AccurateRip v1 signature : CE6C8345
AccurateRip v2 signature : 7CCE2052
->Accurately ripped (v1, confidence 1/1)
Statistics
Read error : 0
Jitter error (maybe fixed) : 0
Retry sector count : 0
Damaged sector count : 0
Track 02
Filename : /Users/ho2075/Desktop/02 Anthony Braxton & David Rosenboom - Enactment.flac
Pre-gap length : 00:03:40
Track gain : -0.51 dB
Peak : 0.924194
CRC32 hash (test run) : D1DFDF6E
CRC32 hash : D1DFDF6E
CRC32 hash (skip zero) : EE0B0390
AccurateRip v1 signature : 7E05EA0C
AccurateRip v2 signature : FAF84352
->Accurately ripped (v1, confidence 1/1)
Statistics
Read error : 0
Jitter error (maybe fixed) : 0
Retry sector count : 0
Damaged sector count : 0
Track 03
Filename : /Users/ho2075/Desktop/03 Anthony Braxton & David Rosenboom - Two Lines.flac
Pre-gap length : 00:03:40
Track gain : -0.60 dB
Peak : 0.942078
CRC32 hash (test run) : F1EFF363
CRC32 hash : F1EFF363
CRC32 hash (skip zero) : 2E1B8776
AccurateRip v1 signature : 3B1953FA
AccurateRip v2 signature : 657BFEF1
->Accurately ripped (v1, confidence 1/1)
Statistics
Read error : 0
Jitter error (maybe fixed) : 0
Retry sector count : 0
Damaged sector count : 0
Track 04
Filename : /Users/ho2075/Desktop/04 Anthony Braxton & David Rosenboom - Transfiguration.flac
Pre-gap length : 00:03:50
Track gain : -1.16 dB
Peak : 0.929504
CRC32 hash (test run) : E55FC33C
CRC32 hash : E55FC33C
CRC32 hash (skip zero) : E80654F8
AccurateRip v1 signature : 1BDA9BD8
AccurateRip v2 signature : 9F4C2F4D
->Accurately ripped (v1, confidence 1/1)
Statistics
Read error : 0
Jitter error (maybe fixed) : 0
Retry sector count : 0
Damaged sector count : 0
Track 05
Filename : /Users/ho2075/Desktop/05 Anthony Braxton & David Rosenboom - Transference.flac
Pre-gap length : 00:04:05
Track gain : -1.26 dB
Peak : 0.914948
CRC32 hash (test run) : BF8F41FF
CRC32 hash : BF8F41FF
CRC32 hash (skip zero) : D7ECC155
AccurateRip v1 signature : E1776C36
AccurateRip v2 signature : 62C7FFD4
->Accurately ripped (v1, confidence 1/1)
Statistics
Read error : 0
Jitter error (maybe fixed) : 0
Retry sector count : 0
Damaged sector count : 0
No errors occurred
End of status report
-----BEGIN XLD SIGNATURE-----
xy7nGOfZ_cizIpV5ysb.jPJzegSGmYJpO8FvXX0nWulORgfWl5Xk2hYICCfid3W399DzVg.tEFUL2lgYeI7i2xc6Xuc1wGrsfyRSSTK
-----END XLD SIGNATURE-----
 
.cue
TITLE "Two Lines"
PERFORMER "Anthony Braxton & David Rosenboom"
REM GENRE "Jazz"
REM DATE "1995"
REM DISCNUMBER 1
REM TOTALDISCS 1
REM DISCID 3210D105
REM REPLAYGAIN_ALBUM_GAIN -0.93 dB
REM REPLAYGAIN_ALBUM_PEAK 0.942078
REM COMPILATION TRUE
FILE "01 Anthony Braxton & David Rosenboom - Lineage.flac" WAVE
TRACK 01 AUDIO
TITLE "Lineage"
PERFORMER "Anthony Braxton & David Rosenboom"
REM REPLAYGAIN_TRACK_GAIN -1.29 dB
REM REPLAYGAIN_TRACK_PEAK 0.925354
INDEX 01 00:00:00
TRACK 02 AUDIO
TITLE "Enactment"
PERFORMER "Anthony Braxton & David Rosenboom"
REM REPLAYGAIN_TRACK_GAIN -0.51 dB
REM REPLAYGAIN_TRACK_PEAK 0.924194
INDEX 00 08:29:65
FILE "02 Anthony Braxton & David Rosenboom - Enactment.flac" WAVE
INDEX 01 00:00:00
TRACK 03 AUDIO
TITLE "Two Lines"
PERFORMER "Anthony Braxton & David Rosenboom"
REM REPLAYGAIN_TRACK_GAIN -0.60 dB
REM REPLAYGAIN_TRACK_PEAK 0.942078
INDEX 00 09:14:65
FILE "03 Anthony Braxton & David Rosenboom - Two Lines.flac" WAVE
INDEX 01 00:00:00
TRACK 04 AUDIO
TITLE "Transfiguration"
PERFORMER "Anthony Braxton & David Rosenboom"
REM REPLAYGAIN_TRACK_GAIN -1.16 dB
REM REPLAYGAIN_TRACK_PEAK 0.929504
INDEX 00 26:23:15
FILE "04 Anthony Braxton & David Rosenboom - Transfiguration.flac" WAVE
INDEX 01 00:00:00
TRACK 05 AUDIO
TITLE "Transference"
PERFORMER "Anthony Braxton & David Rosenboom"
REM REPLAYGAIN_TRACK_GAIN -1.26 dB
REM REPLAYGAIN_TRACK_PEAK 0.914948
INDEX 00 12:29:60
FILE "05 Anthony Braxton & David Rosenboom - Transference.flac" WAVE
INDEX 01 00:00:00
 
.accurip
[CUETools log; Date: 11/08/15 13:39:25; Version: 2.1.4]
[CTDB TOCID: pjB.q06o.0egMYomwcG0HnDFTgA-] found.
Track | CTDB Status
1 | (1/1) Accurately ripped
2 | (1/1) Accurately ripped
3 | (1/1) Accurately ripped
4 | (1/1) Accurately ripped
5 | (1/1) Accurately ripped
[AccurateRip ID: 000db092-00421e32-3210d105] found.
Track [ CRC | V2 ] Status
01 [ce6c8345|7cce2052] (1+0/1) Accurately ripped
02 [7e05ea0c|faf84352] (1+0/1) Accurately ripped
03 [3b1953fa|657bfef1] (1+0/1) Accurately ripped
04 [1bda9bd8|9f4c2f4d] (1+0/1) Accurately ripped
05 [e1776c36|62c7ffd4] (1+0/1) Accurately ripped
Track Peak [ CRC32 ] [W/O NULL]
-- 94.2 [C8F44A31] [7C68C18F]
01 92.5 [B0769029] [BAF822D3]
02 92.4 [D1DFDF6E] [EE0B0390]
03 94.2 [F1EFF363] [2E1B8776]
04 92.9 [E55FC33C] [E80654F8]
05 91.4 [BF8F41FF] [D7ECC155]

http://www.discogs.com/David-Rosenboom-Anthony-Braxton-Two-Lines/release/1574199
другие релизы
По всем вопросам пишите личное сообщение пользователю M0p94ok.
14:59
327
Нет комментариев. Ваш будет первым!