Вы используете незарегистрированную версию компонента "Вкладки"!

Поиск

(Avant-Garde Jazz, Free Jazz, Hard Bop) [CD] John Coltrane - Living Space (1965) - 2015 {UCCI-9244}, FLAC (tracks+.cue), lossless

(Avant-Garde Jazz, Free Jazz, Hard Bop) [CD] John Coltrane - Living Space (1965) - 2015 {UCCI-9244}, FLAC (tracks+.cue), lossless
Треклист:
John Coltrane - Living Space (1965) Жанр: Avant-Garde Jazz, Free Jazz, Hard Bop
Носитель: CD
Страна-производитель диска (релиза): Japan
Год издания: 2015
Издатель (лейбл): Impulse!/Verve/Universal Music Japan
Номер по каталогу: UCCI-9244
Аудиокодек: FLAC (*.flac)
Тип рипа: tracks+.cue
Битрейт аудио: lossless
Продолжительность: 51:19
Rip by ruskaval
Наличие сканов в содержимом раздачи: да
Треклист:
01. Living Space (10:25)
02. Untitled 90314 (14:49)
03. Dusk-Dawn (10:53)
04. Untitled 90320 (10:48)
05. The Last Blues (4:24)
Personnel:
John Coltrane - ts, ss
McCoy Tyner - p
Jimmy Garrison - b
Elvin Jones - d
 
 
Лог создания рипа
Exact Audio Copy V1.1 from 23. June 2015
EAC extraction logfile from 10. August 2015, 14:14
John Coltrane / Living Space
Used drive : TSSTcorpCDDVDW SE-208DB Adapter: 7 ID: 0
Read mode : Secure
Utilize accurate stream : Yes
Defeat audio cache : Yes
Make use of C2 pointers : No
Read offset correction : 6
Overread into Lead-In and Lead-Out : No
Fill up missing offset samples with silence : Yes
Delete leading and trailing silent blocks : No
Null samples used in CRC calculations : Yes
Used interface : Installed external ASPI interface
Gap handling : Appended to previous track
Used output format : User Defined Encoder
Selected bitrate : 1024 kBit/s
Quality : High
Add ID3 tag : No
Command line compressor : C:\Program Files (x86)\FLAC Frontend\tools\flac.exe
Additional command line options : -8 -V -T "ARTIST=%artist%" -T "TITLE=%title%" -T "ALBUM=%albumtitle%" -T "DATE=%year%" -T "TRACKNUMBER=%tracknr%" -T "TOTALTRACKS=%numtracks%" -T "GENRE=%genre%" -T "ALBUMARTIST=%albumartist%" -T "ALBUM ARTIST=%albumartist%" -T "COMMENT=EAC Secure Mode, Test & Copy, AccurateRip, FLAC -8" %source%
TOC of the extracted CD
Track | Start | Length | Start sector | End sector
---------------------------------------------------------
1 | 0:00.00 | 10:25.35 | 0 | 46909
2 | 10:25.35 | 14:49.10 | 46910 | 113594
3 | 25:14.45 | 10:52.40 | 113595 | 162534
4 | 36:07.10 | 10:48.22 | 162535 | 211156
5 | 46:55.32 | 4:23.63 | 211157 | 230944
Track 1
Filename M:\_EAC\John Coltrane - Living Space (1965) [FLAC] {2015 Japan Impulse! Classics 50 Series}\01 - Living Space.wav
Pre-gap length 0:00:02.00
Peak level 97.9 %
Extraction speed 1.1 X
Track quality 99.9 %
Test CRC DBC4548B
Copy CRC DBC4548B
Track not present in AccurateRip database
Copy OK
Track 2
Filename M:\_EAC\John Coltrane - Living Space (1965) [FLAC] {2015 Japan Impulse! Classics 50 Series}\02 - Untitled 90314.wav
Pre-gap length 0:00:03.24
Peak level 97.9 %
Extraction speed 1.5 X
Track quality 100.0 %
Test CRC 9BD918FC
Copy CRC 9BD918FC
Track not present in AccurateRip database
Copy OK
Track 3
Filename M:\_EAC\John Coltrane - Living Space (1965) [FLAC] {2015 Japan Impulse! Classics 50 Series}\03 - Dusk-Dawn.wav
Pre-gap length 0:00:03.17
Peak level 97.9 %
Extraction speed 1.7 X
Track quality 100.0 %
Test CRC 5D0D873B
Copy CRC 5D0D873B
Track not present in AccurateRip database
Copy OK
Track 4
Filename M:\_EAC\John Coltrane - Living Space (1965) [FLAC] {2015 Japan Impulse! Classics 50 Series}\04 - Untitled 90320.wav
Pre-gap length 0:00:03.32
Peak level 97.9 %
Extraction speed 1.8 X
Track quality 100.0 %
Test CRC A619D11C
Copy CRC A619D11C
Track not present in AccurateRip database
Copy OK
Track 5
Filename M:\_EAC\John Coltrane - Living Space (1965) [FLAC] {2015 Japan Impulse! Classics 50 Series}\05 - The Last Blues.wav
Pre-gap length 0:00:03.11
Peak level 97.9 %
Extraction speed 1.7 X
Track quality 100.0 %
Test CRC B5750578
Copy CRC B5750578
Track not present in AccurateRip database
Copy OK
None of the tracks are present in the AccurateRip database
No errors occurred
End of status report
==== Log checksum 6350A72E44C9564C553053ABF24464A0E04683F0A93A1F580291DB01813C9CF2 ====
 
Содержание индексной карты (.CUE)
REM GENRE Jazz
REM DATE 1965
REM DISCID 420C0705
REM COMMENT "ExactAudioCopy v1.1"
PERFORMER "John Coltrane"
TITLE "Living Space"
FILE "01 - Living Space.wav" WAVE
TRACK 01 AUDIO
TITLE "Living Space"
PERFORMER "John Coltrane"
INDEX 01 00:00:00
TRACK 02 AUDIO
TITLE "Untitled 90314"
PERFORMER "John Coltrane"
INDEX 00 10:22:11
FILE "02 - Untitled 90314.wav" WAVE
INDEX 01 00:00:00
TRACK 03 AUDIO
TITLE "Dusk-Dawn"
PERFORMER "John Coltrane"
INDEX 00 14:45:68
FILE "03 - Dusk-Dawn.wav" WAVE
INDEX 01 00:00:00
TRACK 04 AUDIO
TITLE "Untitled 90320"
PERFORMER "John Coltrane"
INDEX 00 10:49:08
FILE "04 - Untitled 90320.wav" WAVE
INDEX 01 00:00:00
TRACK 05 AUDIO
TITLE "The Last Blues"
PERFORMER "John Coltrane"
INDEX 00 10:45:11
FILE "05 - The Last Blues.wav" WAVE
INDEX 01 00:00:00
По всем вопросам пишите личное сообщение пользователю M0p94ok.
14:59
227
Нет комментариев. Ваш будет первым!