Вы используете незарегистрированную версию компонента "Вкладки"!

Поиск

(Free Jazz, British Jazz, Free Improvisation) The Lazonby Group - War All The Time - 1995, FLAC (tracks+.cue), lossless

(Free Jazz, British Jazz, Free Improvisation) The Lazonby Group - War All The Time - 1995, FLAC (tracks+.cue), lossless
Треклист:
The Lazonby Group / War All The Time
Жанр: Free Jazz, British Jazz, Free Improvisation
Страна-производитель диска: UK
Год издания: 1995
Издатель (лейбл): Slam Productions
Номер по каталогу: SLAMCD 214
Страна: UK
Аудиокодек: FLAC (*.flac)
Тип рипа: tracks+.cue
Битрейт аудио: lossless
Продолжительность: 63:44
Источник (релизер): свой фирменный диск
Наличие сканов в содержимом раздачи: нет
Треклист:
1 Mass [Part One] 9:56
2 Journey From Sirius B To Earth 10:46
3 Bossa Nova My Arse 5:01
4 War All The Time [Part One] 11:00
5 War All The Time [Part Two] 11:33
6 Pork Leg 6:25
7 Mass [Part Two] 9:06
 
Лог создания рипа
Exact Audio Copy V1.0 beta 3 from 29. August 2011
EAC extraction logfile from 21. December 2012, 19:52
The Lazonby Group / War All The Time
Used drive : PIONEER DVD-RW DVR-115D Adapter: 0 ID: 0
Read mode : Secure
Utilize accurate stream : Yes
Defeat audio cache : Yes
Make use of C2 pointers : No
Read offset correction : 48
Overread into Lead-In and Lead-Out : No
Fill up missing offset samples with silence : Yes
Delete leading and trailing silent blocks : No
Null samples used in CRC calculations : Yes
Used interface : Installed external ASPI interface
Gap handling : Appended to previous track
Used output format : User Defined Encoder
Selected bitrate : 896 kBit/s
Quality : High
Add ID3 tag : No
Command line compressor : C:\Program Files\Exact Audio Copy\FLAC\FLAC.EXE
Additional command line options : -6 -V -T "ARTIST=%artist%" -T "TITLE=%title%" -T "ALBUM=%albumtitle%" -T "DATE=%year%" -T "TRACKNUMBER=%tracknr%" -T "GENRE=%genre%" -T "COMMENT=%comment%" -T "BAND=%albuminterpret%" -T "COMPOSER=%composer%" %haslyrics%--tag-from-file=LYRICS="%lyricsfile%"%haslyrics% -T "DISCNUMBER=%cdnumber%" -T "TOTALDISCS=%totalcds%" -T "TOTALTRACKS=%numtracks%" %hascover%--picture="%coverfile%"%hascover% %source% -o %dest%
TOC of the extracted CD
Track | Start | Length | Start sector | End sector
---------------------------------------------------------
1 | 0:01.00 | 9:56.28 | 75 | 44802
2 | 9:57.28 | 10:45.13 | 44803 | 93190
3 | 20:42.41 | 5:00.42 | 93191 | 115732
4 | 25:43.08 | 10:59.59 | 115733 | 165216
5 | 36:42.67 | 11:32.00 | 165217 | 217116
6 | 48:14.67 | 6:24.59 | 217117 | 245975
7 | 54:39.51 | 9:05.38 | 245976 | 286888
Track 1
Filename D:\zzz\01 - Mass (Part One).wav
Pre-gap length 0:00:03.00
Peak level 98.8 %
Extraction speed 5.5 X
Track quality 100.0 %
Test CRC 50C6AC3C
Copy CRC 50C6AC3C
Track not present in AccurateRip database
Copy OK
Track 2
Filename D:\zzz\02 - Journey From Sirius B To Earth.wav
Pre-gap length 0:00:03.45
Peak level 98.8 %
Extraction speed 6.5 X
Track quality 100.0 %
Test CRC D1489BD3
Copy CRC D1489BD3
Track not present in AccurateRip database
Copy OK
Track 3
Filename D:\zzz\03 - Bossa Nova My Arse.wav
Pre-gap length 0:00:03.45
Peak level 98.8 %
Extraction speed 6.7 X
Track quality 100.0 %
Test CRC 408D0FFB
Copy CRC 408D0FFB
Track not present in AccurateRip database
Copy OK
Track 4
Filename D:\zzz\04 - War All The Time (Part One).wav
Pre-gap length 0:00:03.45
Peak level 98.8 %
Extraction speed 7.8 X
Track quality 100.0 %
Test CRC 4A29DD15
Copy CRC 4A29DD15
Track not present in AccurateRip database
Copy OK
Track 5
Filename D:\zzz\05 - War All The Time (Part Two).wav
Pre-gap length 0:00:03.45
Peak level 98.8 %
Extraction speed 8.5 X
Track quality 100.0 %
Test CRC AC88A3EF
Copy CRC AC88A3EF
Track not present in AccurateRip database
Copy OK
Track 6
Filename D:\zzz\06 - Pork Leg.wav
Pre-gap length 0:00:03.45
Peak level 98.8 %
Extraction speed 8.0 X
Track quality 99.9 %
Test CRC D73D9628
Copy CRC D73D9628
Track not present in AccurateRip database
Copy OK
Track 7
Filename D:\zzz\07 - Mass (Part Two).wav
Pre-gap length 0:00:03.45
Peak level 98.8 %
Extraction speed 9.3 X
Track quality 100.0 %
Test CRC 6A95C87B
Copy CRC 6A95C87B
Track not present in AccurateRip database
Copy OK
None of the tracks are present in the AccurateRip database
No errors occurred
End of status report
==== Log checksum 375443D058DD75D4BF39828DC2A0B9343D7F14E16D197A001BBB1E0D160C6067 ====
 
Содержание индексной карты (.CUE)
REM GENRE Avantgarde
REM DATE 1995
REM DISCID 630EF007
REM COMMENT "ExactAudioCopy v1.0b3"
PERFORMER "The Lazonby Group"
TITLE "War All The Time"
FILE "01 - Mass (Part One).wav" WAVE
TRACK 01 AUDIO
TITLE "Mass (Part One)"
PERFORMER "The Lazonby Group"
PREGAP 00:01:00
INDEX 01 00:00:00
TRACK 02 AUDIO
TITLE "Journey From Sirius B To Earth"
PERFORMER "The Lazonby Group"
INDEX 00 09:52:58
FILE "02 - Journey From Sirius B To Earth.wav" WAVE
INDEX 01 00:00:00
TRACK 03 AUDIO
TITLE "Bossa Nova My Arse"
PERFORMER "The Lazonby Group"
INDEX 00 10:41:43
FILE "03 - Bossa Nova My Arse.wav" WAVE
INDEX 01 00:00:00
TRACK 04 AUDIO
TITLE "War All The Time (Part One)"
PERFORMER "The Lazonby Group"
INDEX 00 04:56:72
FILE "04 - War All The Time (Part One).wav" WAVE
INDEX 01 00:00:00
TRACK 05 AUDIO
TITLE "War All The Time (Part Two)"
PERFORMER "The Lazonby Group"
INDEX 00 10:56:14
FILE "05 - War All The Time (Part Two).wav" WAVE
INDEX 01 00:00:00
TRACK 06 AUDIO
TITLE "Pork Leg"
PERFORMER "The Lazonby Group"
INDEX 00 11:28:30
FILE "06 - Pork Leg.wav" WAVE
INDEX 01 00:00:00
TRACK 07 AUDIO
TITLE "Mass (Part Two)"
PERFORMER "The Lazonby Group"
INDEX 00 06:21:14
FILE "07 - Mass (Part Two).wav" WAVE
INDEX 01 00:00:00
 
Лог проверки качества
d:\>d:\aucdtect -d/-m0 d:\zzz\*.wav
auCDtect: CD records authenticity detector, version 0.8.2
Copyright (c) 2004 Oleg Berngardt. All rights reserved.
Copyright (c) 2004 Alexander Djourik. All rights reserved.
------------------------------------------------------------
Processing file: [01. Mass (Part One).wav]
------------------------------------------------------------
This track looks like CDDA with probability 100%
------------------------------------------------------------
Processing file: [02. Journey From Sirius B To Earth.wav]
------------------------------------------------------------
This track looks like CDDA with probability 99%
------------------------------------------------------------
Processing file: [03. Bossa Nova My Arse.wav]
------------------------------------------------------------
This track looks like CDDA with probability 100%
------------------------------------------------------------
Processing file: [04. War All The Time (Part One).wav]
------------------------------------------------------------
This track looks like CDDA with probability 100%
------------------------------------------------------------
Processing file: [05. War All The Time (Part Two).wav]
------------------------------------------------------------
This track looks like CDDA with probability 99%
------------------------------------------------------------
Processing file: [06. Pork Leg.wav]
------------------------------------------------------------
This track looks like CDDA with probability 100%
------------------------------------------------------------
Processing file: [07. Mass (Part Two).wav]
------------------------------------------------------------
This track looks like CDDA with probability 100%
------------------------------------------------------------
Final Conclusion:
------------------------------------------------------------
These tracks looks like CDDA with probability 100%
Доп. информация:
 
Album Info
Recorded on 14 April 1994 at Beaumont Street Studio, Huddersfield, England
 
Состав
Bass – Simon Russell
Drums – Gene Velocette
Guitar – Eddie Roberts
Saxophone – David Lazonby
Any questions -> support@pro-jazz.com. По всем вопросам пишите -> support@pro-jazz.com
06:41
142
Нет комментариев. Ваш будет первым!