Поиск

(Free Jazz, Bop) [CD] Ran Blake & Jaki Byard - Improvisations - 1981 (1987), FLAC (tracks+.cue), lossless

(Free Jazz, Bop) [CD] Ran Blake & Jaki Byard - Improvisations - 1981 (1987), FLAC (tracks+.cue), lossless
Треклист:
Ran Blake & Jaki Byard - Improvisations
Жанр: Free Jazz, Bop
Носитель: CD
Страна-производитель диска (релиза): Италия
Год издания: 1987
Издатель (лейбл): Soul Note
Номер по каталогу: SN 1022 CD
Аудиокодек: FLAC (*.flac)
Тип рипа: tracks+.cue
Битрейт аудио: lossless
Продолжительность: 45:05
Источник (релизер): badbetty (what)
Наличие сканов в содержимом раздачи: нет
Треклист:
01. On Green Dolphin Street (Washington-Kaper) - 6:10
02. Prelude (Blake-Byard) - 4:12
03. Chromatics (Byard-Blake) - 8:31
04. Wende (Blake) - 3:48
05. Tea for Two (Caesar-Youmans) - 7:00
06. Victoria (Silberman) - 4:45
07. Sonata for Two Pianos (Blake-Byard) - 10:39
Состав:
Ran Blake, Jaki Byard - piano
Recorded at Barigozzi Studios, Milano on May 25-26, 1981.
 
Лог создания рипа
X Lossless Decoder version 20141129 (148.1)
XLD extraction logfile from 2015-05-17 14:57:10 +0100
Ran Blake & Jaki Byard / Improvisations
Used drive : MATSHITA DVD-R UJ-8A8 (revision HB14)
Media type : Pressed CD
Ripper mode : XLD Secure Ripper
Disable audio cache : OK for the drive with a cache less than 1375KiB
Make use of C2 pointers : NO
Read offset correction : 102
Max retry count : 100
Gap status : Analyzed, Appended
TOC of the extracted CD
Track | Start | Length | Start sector | End sector
---------------------------------------------------------
1 | 00:00:32 | 06:09:20 | 32 | 27726
2 | 06:09:52 | 04:11:68 | 27727 | 46619
3 | 10:21:45 | 08:31:15 | 46620 | 84959
4 | 18:52:60 | 03:47:42 | 84960 | 102026
5 | 22:40:27 | 07:00:23 | 102027 | 133549
6 | 29:40:50 | 04:45:22 | 133550 | 154946
7 | 34:25:72 | 10:38:43 | 154947 | 202839
AccurateRip Summary
Disc not found in AccurateRip DB.
All Tracks
Album gain : 1.64 dB
Peak : 0.762665
Statistics
Read error : 0
Jitter error (maybe fixed) : 0
Retry sector count : 0
Damaged sector count : 0
Track 01
Filename : /XLD/Ran Blake & Jaki Byard - 1987 - Improvisations [FLAC]/01 On Green Dolphin Street.flac
/XLD/Ran Blake & Jaki Byard - 1987 - Improvisations [LAME MP3 (320)]/01 On Green Dolphin Street.mp3
Pre-gap length : 00:02:32
Track gain : 1.72 dB
Peak : 0.595673
CRC32 hash (test run) : 121983F5
CRC32 hash : 121983F5
CRC32 hash (skip zero) : B8461CBB
AccurateRip v1 signature : C728D188
AccurateRip v2 signature : 637B7242
->Track not present in AccurateRip database.
Statistics
Read error : 0
Jitter error (maybe fixed) : 0
Retry sector count : 0
Damaged sector count : 0
Track 02
Filename : /XLD/Ran Blake & Jaki Byard - 1987 - Improvisations [FLAC]/02 Prelude.flac
/XLD/Ran Blake & Jaki Byard - 1987 - Improvisations [LAME MP3 (320)]/02 Prelude.mp3
Pre-gap length : 00:02:22
Track gain : 7.45 dB
Peak : 0.561310
CRC32 hash (test run) : 1A896D44
CRC32 hash : 1A896D44
CRC32 hash (skip zero) : 0CD2E6A5
AccurateRip v1 signature : 050B9B9A
AccurateRip v2 signature : CF514EAA
->Track not present in AccurateRip database.
Statistics
Read error : 0
Jitter error (maybe fixed) : 0
Retry sector count : 0
Damaged sector count : 0
Track 03
Filename : /XLD/Ran Blake & Jaki Byard - 1987 - Improvisations [FLAC]/03 Chromatics.flac
/XLD/Ran Blake & Jaki Byard - 1987 - Improvisations [LAME MP3 (320)]/03 Chromatics.mp3
Pre-gap length : 00:02:35
Track gain : 0.87 dB
Peak : 0.762665
CRC32 hash (test run) : B0967493
CRC32 hash : B0967493
CRC32 hash (skip zero) : F1AC4589
AccurateRip v1 signature : 99B637A6
AccurateRip v2 signature : A587D58E
->Track not present in AccurateRip database.
Statistics
Read error : 0
Jitter error (maybe fixed) : 0
Retry sector count : 0
Damaged sector count : 0
Track 04
Filename : /XLD/Ran Blake & Jaki Byard - 1987 - Improvisations [FLAC]/04 Wende.flac
/XLD/Ran Blake & Jaki Byard - 1987 - Improvisations [LAME MP3 (320)]/04 Wende.mp3
Pre-gap length : 00:02:05
Track gain : 3.07 dB
Peak : 0.539062
CRC32 hash (test run) : C484385A
CRC32 hash : C484385A
CRC32 hash (skip zero) : BB26E5A7
AccurateRip v1 signature : 3EAE54BB
AccurateRip v2 signature : 31092A10
->Track not present in AccurateRip database.
Statistics
Read error : 0
Jitter error (maybe fixed) : 0
Retry sector count : 0
Damaged sector count : 0
Track 05
Filename : /XLD/Ran Blake & Jaki Byard - 1987 - Improvisations [FLAC]/05 Tea for Two.flac
/XLD/Ran Blake & Jaki Byard - 1987 - Improvisations [LAME MP3 (320)]/05 Tea for Two.mp3
Pre-gap length : 00:04:02
Track gain : 1.50 dB
Peak : 0.650909
CRC32 hash (test run) : C072F4E7
CRC32 hash : C072F4E7
CRC32 hash (skip zero) : 594FCF2F
AccurateRip v1 signature : 4C375A9D
AccurateRip v2 signature : 3AD19621
->Track not present in AccurateRip database.
Statistics
Read error : 0
Jitter error (maybe fixed) : 0
Retry sector count : 0
Damaged sector count : 0
Track 06
Filename : /XLD/Ran Blake & Jaki Byard - 1987 - Improvisations [FLAC]/06 Victoria.flac
/XLD/Ran Blake & Jaki Byard - 1987 - Improvisations [LAME MP3 (320)]/06 Victoria.mp3
Pre-gap length : 00:01:28
Track gain : 1.31 dB
Peak : 0.604523
CRC32 hash (test run) : 6A7801CB
CRC32 hash : 6A7801CB
CRC32 hash (skip zero) : 41B5D5E7
AccurateRip v1 signature : B392309D
AccurateRip v2 signature : 37127263
->Track not present in AccurateRip database.
Statistics
Read error : 0
Jitter error (maybe fixed) : 0
Retry sector count : 0
Damaged sector count : 0
Track 07
Filename : /XLD/Ran Blake & Jaki Byard - 1987 - Improvisations [FLAC]/07 Sonata for Two Pianos.flac
/XLD/Ran Blake & Jaki Byard - 1987 - Improvisations [LAME MP3 (320)]/07 Sonata for Two Pianos.mp3
Pre-gap length : 00:02:12
Track gain : 1.60 dB
Peak : 0.723083
CRC32 hash (test run) : 52FAA1DE
CRC32 hash : 52FAA1DE
CRC32 hash (skip zero) : A93A1E3E
AccurateRip v1 signature : EE14BB08
AccurateRip v2 signature : 32728163
->Track not present in AccurateRip database.
Statistics
Read error : 0
Jitter error (maybe fixed) : 0
Retry sector count : 0
Damaged sector count : 0
No errors occurred
End of status report
-----BEGIN XLD SIGNATURE-----
_afoqzTIVRxNgXUknVN9SJhP_6mYtBDqJKJ2o_MVavXAkL0nMYtypkYHzigPtxByi4hAOvkmbSix.hnViAtssbcGuQA2ORpXYhpSg_W
-----END XLD SIGNATURE-----
 
Содержание индексной карты (.CUE)
TITLE "Improvisations"
PERFORMER "Ran Blake & Jaki Byard"
REM GENRE "Jazz"
REM DATE "1981"
REM DISCID 4E0A9007
REM REPLAYGAIN_ALBUM_GAIN 1.64 dB
REM REPLAYGAIN_ALBUM_PEAK 0.762665
FILE "01 - On Green Dolphin Street.flac" WAVE
TRACK 01 AUDIO
TITLE "On Green Dolphin Street"
REM REPLAYGAIN_TRACK_GAIN 1.72 dB
REM REPLAYGAIN_TRACK_PEAK 0.595673
INDEX 00 00:00:00
INDEX 01 00:00:32
TRACK 02 AUDIO
TITLE "Prelude"
REM REPLAYGAIN_TRACK_GAIN 7.45 dB
REM REPLAYGAIN_TRACK_PEAK 0.561310
INDEX 00 06:07:30
FILE "02 - Prelude.flac" WAVE
INDEX 01 00:00:00
TRACK 03 AUDIO
TITLE "Chromatics"
REM REPLAYGAIN_TRACK_GAIN 0.87 dB
REM REPLAYGAIN_TRACK_PEAK 0.762665
INDEX 00 04:09:33
FILE "03 - Chromatics.flac" WAVE
INDEX 01 00:00:00
TRACK 04 AUDIO
TITLE "Wende"
REM REPLAYGAIN_TRACK_GAIN 3.07 dB
REM REPLAYGAIN_TRACK_PEAK 0.539062
INDEX 00 08:29:10
FILE "04 - Wende.flac" WAVE
INDEX 01 00:00:00
TRACK 05 AUDIO
TITLE "Tea for Two"
REM REPLAYGAIN_TRACK_GAIN 1.50 dB
REM REPLAYGAIN_TRACK_PEAK 0.650909
INDEX 00 03:43:40
FILE "05 - Tea for Two.flac" WAVE
INDEX 01 00:00:00
TRACK 06 AUDIO
TITLE "Victoria"
REM REPLAYGAIN_TRACK_GAIN 1.31 dB
REM REPLAYGAIN_TRACK_PEAK 0.604523
INDEX 00 06:58:70
FILE "06 - Victoria.flac" WAVE
INDEX 01 00:00:00
TRACK 07 AUDIO
TITLE "Sonata for Two Pianos"
REM REPLAYGAIN_TRACK_GAIN 1.60 dB
REM REPLAYGAIN_TRACK_PEAK 0.723083
INDEX 00 04:43:10
FILE "07 - Sonata for Two Pianos.flac" WAVE
INDEX 01 00:00:00
 
AllMusic Review by Ken Dryden
At the time of this recording, both Jaki Byard and Ran Blake were music professors at the New England Conservatory. Blake's Third Stream background provides an interesting foil for the eclectic Byard. The wild introduction to "On Green Dolphin Street" signals a departure from the common paths, with dissonance playing a key role. They co-composed several pieces during the date, including the ear-stretching blues "Chromatics." This is a very lively session worth repeated hearings.
По всем вопросам пишите личное сообщение пользователю M0p94ok.
15:46
316
Нет комментариев. Ваш будет первым!