Вы используете незарегистрированную версию компонента "Вкладки"!

Поиск

(Avant-Garde Jazz, Free Improvisation) [CD] John Carter & Bobby Bradford - Mosaic Select 36 (3CD) - 2010, FLAC (tracks+.cue), lossless

(Avant-Garde Jazz, Free Improvisation) [CD] John Carter & Bobby Bradford - Mosaic Select 36 (3CD) - 2010, FLAC (tracks+.cue), lossless
Треклист:
John Carter & Bobby Bradford - Mosaic Select 36 (3CD)

Жанр: Avant-Garde Jazz, Free Improvisation
Носитель: CD
Год издания: 2010
Издатель (лейбл): Mosaic Records
Номер по каталогу: MS-036
Аудиокодек: FLAC (*.flac)
Тип рипа: tracks+.cue
Битрейт аудио: lossless
Продолжительность: 03:13:26
Источник (релизер): ruskaval
Наличие сканов в содержимом раздачи: да 
 
 
Disc 1
Продолжительность: 73:18
Треклист:
01. In the Vineyard (10:31)
02. Karen On Monday (6:52)
03. Sticks and Stones (6:18)
04. The Village Dancers (8:54)
05. Seeking (6:33)
06. Song For The Unsung (8:03)
07. Sticks and Stones (11:49)
08. Blues Upstairs (5:48)
09. Domino (8:30)
 
 
Лог создания рипа
Exact Audio Copy V0.99 prebeta 4 from 23. January 2008
EAC extraction logfile from 29. July 2010, 15:06
John Carter, Bobby Bradford / Mosaic Select 36 (Disc 1)
Used drive : _NEC DVD_RW ND-3520A Adapter: 1 ID: 0
Read mode : Secure
Utilize accurate stream : Yes
Defeat audio cache : Yes
Make use of C2 pointers : No
Read offset correction : 48
Overread into Lead-In and Lead-Out : No
Fill up missing offset samples with silence : Yes
Delete leading and trailing silent blocks : No
Null samples used in CRC calculations : Yes
Used interface : Installed external ASPI interface
Gap handling : Appended to previous track
Used output format : User Defined Encoder
Selected bitrate : 1024 kBit/s
Quality : High
Add ID3 tag : No
Command line compressor : C:\Program Files\FLAC\flac.exe
Additional command line options : -8 -V -T "ARTIST=%a" -T "TITLE=%t" -T "ALBUM=%g" -T "DATE=%y" -T "TRACKNUMBER=%n" -T "GENRE=%m" -T "COMMENT=EAC FLAC -8" %s
TOC of the extracted CD
Track | Start | Length | Start sector | End sector
---------------------------------------------------------
1 | 0:00.00 | 10:30.59 | 0 | 47308
2 | 10:30.59 | 6:52.26 | 47309 | 78234
3 | 17:23.10 | 6:17.59 | 78235 | 106568
4 | 23:40.69 | 8:54.01 | 106569 | 146619
5 | 32:34.70 | 6:33.21 | 146620 | 176115
6 | 39:08.16 | 8:02.59 | 176116 | 212324
7 | 47:11.00 | 11:49.19 | 212325 | 265518
8 | 59:00.19 | 5:47.70 | 265519 | 291613
9 | 64:48.14 | 8:30.10 | 291614 | 329873
Track 1
Filename C:\John Carter & Bobby Bradford - Mosaic Select 36 (1969-1979) [FLAC]\Disc 1\01 - In the Vineyard.wav
Pre-gap length 0:00:02.00
Peak level 100.0 %
Track quality 100.0 %
Test CRC 72E3DA92
Copy CRC 72E3DA92
Track not present in AccurateRip database
Copy OK
Track 2
Filename C:\John Carter & Bobby Bradford - Mosaic Select 36 (1969-1979) [FLAC]\Disc 1\02 - Karen On Monday.wav
Peak level 100.0 %
Track quality 100.0 %
Test CRC C162A432
Copy CRC C162A432
Track not present in AccurateRip database
Copy OK
Track 3
Filename C:\John Carter & Bobby Bradford - Mosaic Select 36 (1969-1979) [FLAC]\Disc 1\03 - Sticks and Stones.wav
Peak level 100.0 %
Track quality 100.0 %
Test CRC 9552CB56
Copy CRC 9552CB56
Track not present in AccurateRip database
Copy OK
Track 4
Filename C:\John Carter & Bobby Bradford - Mosaic Select 36 (1969-1979) [FLAC]\Disc 1\04 - The Village Dancers.wav
Peak level 100.0 %
Track quality 100.0 %
Test CRC 2281F247
Copy CRC 2281F247
Track not present in AccurateRip database
Copy OK
Track 5
Filename C:\John Carter & Bobby Bradford - Mosaic Select 36 (1969-1979) [FLAC]\Disc 1\05 - Seeking.wav
Peak level 100.0 %
Track quality 100.0 %
Test CRC 239E9F86
Copy CRC 239E9F86
Track not present in AccurateRip database
Copy OK
Track 6
Filename C:\John Carter & Bobby Bradford - Mosaic Select 36 (1969-1979) [FLAC]\Disc 1\06 - Song For The Unsung.wav
Peak level 100.0 %
Track quality 99.9 %
Test CRC 26FA4440
Copy CRC 26FA4440
Track not present in AccurateRip database
Copy OK
Track 7
Filename C:\John Carter & Bobby Bradford - Mosaic Select 36 (1969-1979) [FLAC]\Disc 1\07 - Sticks and Stones.wav
Peak level 100.0 %
Track quality 100.0 %
Test CRC 28C68723
Copy CRC 28C68723
Track not present in AccurateRip database
Copy OK
Track 8
Filename C:\John Carter & Bobby Bradford - Mosaic Select 36 (1969-1979) [FLAC]\Disc 1\08 - Blues Upstairs.wav
Peak level 100.0 %
Track quality 100.0 %
Test CRC 18EF8298
Copy CRC 18EF8298
Track not present in AccurateRip database
Copy OK
Track 9
Filename C:\John Carter & Bobby Bradford - Mosaic Select 36 (1969-1979) [FLAC]\Disc 1\09 - Domino.wav
Peak level 100.0 %
Track quality 100.0 %
Test CRC C0469C20
Copy CRC C0469C20
Track not present in AccurateRip database
Copy OK
None of the tracks are present in the AccurateRip database
No errors occurred
End of status report
 
Содержание индексной карты (.CUE)
REM GENRE Jazz
REM DATE 2010
REM DISCID 71112E09
REM COMMENT "ExactAudioCopy v0.99pb4"
PERFORMER "John Carter, Bobby Bradford"
TITLE "Mosaic Select 36 (Disc 1)"
FILE "01 - In the Vineyard.wav" WAVE
TRACK 01 AUDIO
TITLE "In the Vineyard"
PERFORMER "John Carter, Bobby Bradford"
FLAGS DCP
INDEX 01 00:00:00
FILE "02 - Karen On Monday.wav" WAVE
TRACK 02 AUDIO
TITLE "Karen On Monday"
PERFORMER "John Carter, Bobby Bradford"
FLAGS DCP
INDEX 01 00:00:00
FILE "03 - Sticks and Stones.wav" WAVE
TRACK 03 AUDIO
TITLE "Sticks and Stones"
PERFORMER "John Carter, Bobby Bradford"
FLAGS DCP
INDEX 01 00:00:00
FILE "04 - The Village Dancers.wav" WAVE
TRACK 04 AUDIO
TITLE "The Village Dancers"
PERFORMER "John Carter, Bobby Bradford"
FLAGS DCP
INDEX 01 00:00:00
FILE "05 - Seeking.wav" WAVE
TRACK 05 AUDIO
TITLE "Seeking"
PERFORMER "John Carter, Bobby Bradford"
FLAGS DCP
INDEX 01 00:00:00
FILE "06 - Song For The Unsung.wav" WAVE
TRACK 06 AUDIO
TITLE "Song For The Unsung"
PERFORMER "John Carter, Bobby Bradford"
FLAGS DCP
INDEX 01 00:00:00
FILE "07 - Sticks and Stones.wav" WAVE
TRACK 07 AUDIO
TITLE "Sticks and Stones"
PERFORMER "John Carter, Bobby Bradford"
FLAGS DCP
INDEX 01 00:00:00
FILE "08 - Blues Upstairs.wav" WAVE
TRACK 08 AUDIO
TITLE "Blues Upstairs"
PERFORMER "John Carter, Bobby Bradford"
FLAGS DCP
INDEX 01 00:00:00
FILE "09 - Domino.wav" WAVE
TRACK 09 AUDIO
TITLE "Domino"
PERFORMER "John Carter, Bobby Bradford"
FLAGS DCP
INDEX 01 00:00:00
 
Disc 2
Продолжительность: 72:45
Треклист:
01. The Village Dancers (8:32)
02. Rosevita's Dance (12:39)
03. Ballad (6:06)
04. Circle (8:34)
05. In A Pretty Place (10:55)
06. Latin (11:19)
07. The Little Waltz (8:32)
08. Woodmen Hall Blues (6:07)
 
 
Лог создания рипа
Exact Audio Copy V0.99 prebeta 4 from 23. January 2008
EAC extraction logfile from 29. July 2010, 16:15
John Carter, Bobby Bradford / Mosaic Select (Disc 2)
Used drive : _NEC DVD_RW ND-3520A Adapter: 1 ID: 0
Read mode : Secure
Utilize accurate stream : Yes
Defeat audio cache : Yes
Make use of C2 pointers : No
Read offset correction : 48
Overread into Lead-In and Lead-Out : No
Fill up missing offset samples with silence : Yes
Delete leading and trailing silent blocks : No
Null samples used in CRC calculations : Yes
Used interface : Installed external ASPI interface
Gap handling : Appended to previous track
Used output format : User Defined Encoder
Selected bitrate : 1024 kBit/s
Quality : High
Add ID3 tag : No
Command line compressor : C:\Program Files\FLAC\flac.exe
Additional command line options : -8 -V -T "ARTIST=%a" -T "TITLE=%t" -T "ALBUM=%g" -T "DATE=%y" -T "TRACKNUMBER=%n" -T "GENRE=%m" -T "COMMENT=EAC FLAC -8" %s
TOC of the extracted CD
Track | Start | Length | Start sector | End sector
---------------------------------------------------------
1 | 0:00.00 | 8:32.06 | 0 | 38405
2 | 8:32.06 | 12:38.49 | 38406 | 95304
3 | 21:10.55 | 6:06.27 | 95305 | 122781
4 | 27:17.07 | 8:33.63 | 122782 | 161319
5 | 35:50.70 | 10:55.34 | 161320 | 210478
6 | 46:46.29 | 11:18.53 | 210479 | 261381
7 | 58:05.07 | 8:32.23 | 261382 | 299804
8 | 66:37.30 | 6:07.09 | 299805 | 327338
Track 1
Filename C:\John Carter & Bobby Bradford - Mosaic Select 36 (1969-1979) [FLAC]\Disc 2\01 - The Village Dancers.wav
Pre-gap length 0:00:02.00
Peak level 100.0 %
Track quality 100.0 %
Test CRC 65A1B8A7
Copy CRC 65A1B8A7
Track not present in AccurateRip database
Copy OK
Track 2
Filename C:\John Carter & Bobby Bradford - Mosaic Select 36 (1969-1979) [FLAC]\Disc 2\02 - Rosevita's Dance.wav
Peak level 100.0 %
Track quality 100.0 %
Test CRC 5653880B
Copy CRC 5653880B
Track not present in AccurateRip database
Copy OK
Track 3
Filename C:\John Carter & Bobby Bradford - Mosaic Select 36 (1969-1979) [FLAC]\Disc 2\03 - Ballad.wav
Peak level 100.0 %
Track quality 100.0 %
Test CRC 3845D291
Copy CRC 3845D291
Track not present in AccurateRip database
Copy OK
Track 4
Filename C:\John Carter & Bobby Bradford - Mosaic Select 36 (1969-1979) [FLAC]\Disc 2\04 - Circle.wav
Peak level 100.0 %
Track quality 100.0 %
Test CRC 8596DA71
Copy CRC 8596DA71
Track not present in AccurateRip database
Copy OK
Track 5
Filename C:\John Carter & Bobby Bradford - Mosaic Select 36 (1969-1979) [FLAC]\Disc 2\05 - In A Pretty Place.wav
Peak level 100.0 %
Track quality 100.0 %
Test CRC 8AF2402C
Copy CRC 8AF2402C
Track not present in AccurateRip database
Copy OK
Track 6
Filename C:\John Carter & Bobby Bradford - Mosaic Select 36 (1969-1979) [FLAC]\Disc 2\06 - Latin.wav
Peak level 100.0 %
Track quality 99.9 %
Test CRC 2A8A04BE
Copy CRC 2A8A04BE
Track not present in AccurateRip database
Copy OK
Track 7
Filename C:\John Carter & Bobby Bradford - Mosaic Select 36 (1969-1979) [FLAC]\Disc 2\07 - The Little Waltz.wav
Peak level 100.0 %
Track quality 100.0 %
Test CRC 7DCF814E
Copy CRC 7DCF814E
Track not present in AccurateRip database
Copy OK
Track 8
Filename C:\John Carter & Bobby Bradford - Mosaic Select 36 (1969-1979) [FLAC]\Disc 2\08 - Woodmen Hall Blues.wav
Peak level 100.0 %
Track quality 100.0 %
Test CRC 1B13F5B2
Copy CRC 1B13F5B2
Track not present in AccurateRip database
Copy OK
None of the tracks are present in the AccurateRip database
No errors occurred
End of status report
 
Содержание индексной карты (.CUE)
REM GENRE Jazz
REM DATE 2010
REM DISCID 7B110C08
REM COMMENT "ExactAudioCopy v0.99pb4"
PERFORMER "John Carter, Bobby Bradford"
TITLE "Mosaic Select 36 (Disc 2)"
FILE "01 - The Village Dancers.wav" WAVE
TRACK 01 AUDIO
TITLE "The Village Dancers"
PERFORMER "John Carter, Bobby Bradford"
FLAGS DCP
INDEX 01 00:00:00
FILE "02 - Rosevita's Dance.wav" WAVE
TRACK 02 AUDIO
TITLE "Rosevita's Dance"
PERFORMER "John Carter, Bobby Bradford"
FLAGS DCP
INDEX 01 00:00:00
FILE "03 - Ballad.wav" WAVE
TRACK 03 AUDIO
TITLE "Ballad"
PERFORMER "John Carter, Bobby Bradford"
FLAGS DCP
INDEX 01 00:00:00
FILE "04 - Circle.wav" WAVE
TRACK 04 AUDIO
TITLE "Circle"
PERFORMER "John Carter, Bobby Bradford"
FLAGS DCP
INDEX 01 00:00:00
FILE "05 - In A Pretty Place.wav" WAVE
TRACK 05 AUDIO
TITLE "In A Pretty Place"
PERFORMER "John Carter, Bobby Bradford"
FLAGS DCP
INDEX 01 00:00:00
FILE "06 - Latin.wav" WAVE
TRACK 06 AUDIO
TITLE "Latin"
PERFORMER "John Carter, Bobby Bradford"
FLAGS DCP
INDEX 01 00:00:00
FILE "07 - The Little Waltz.wav" WAVE
TRACK 07 AUDIO
TITLE "The Little Waltz"
PERFORMER "John Carter, Bobby Bradford"
FLAGS DCP
INDEX 01 00:00:00
FILE "08 - Woodmen Hall Blues.wav" WAVE
TRACK 08 AUDIO
TITLE "Woodmen Hall Blues"
PERFORMER "John Carter, Bobby Bradford"
FLAGS DCP
INDEX 01 00:00:00
 
Disc 3
Продолжительность: 47:23
Треклист:
01. And She Speakes (17:37)
02. Pinch (11:34)
03. Redwood (5:39)
04. This Earth Feeling (9:10)
05. Scramble (3:23)
 
 
Лог создания рипа
Exact Audio Copy V0.99 prebeta 4 from 23. January 2008
EAC extraction logfile from 29. July 2010, 18:06
John Carter, Bobby Bradford / Mosaic Select (Disc 3)
Used drive : _NEC DVD_RW ND-3520A Adapter: 1 ID: 0
Read mode : Secure
Utilize accurate stream : Yes
Defeat audio cache : Yes
Make use of C2 pointers : No
Read offset correction : 48
Overread into Lead-In and Lead-Out : No
Fill up missing offset samples with silence : Yes
Delete leading and trailing silent blocks : No
Null samples used in CRC calculations : Yes
Used interface : Installed external ASPI interface
Gap handling : Appended to previous track
Used output format : User Defined Encoder
Selected bitrate : 1024 kBit/s
Quality : High
Add ID3 tag : No
Command line compressor : C:\Program Files\FLAC\flac.exe
Additional command line options : -8 -V -T "ARTIST=%a" -T "TITLE=%t" -T "ALBUM=%g" -T "DATE=%y" -T "TRACKNUMBER=%n" -T "GENRE=%m" -T "COMMENT=EAC FLAC -8" %s
TOC of the extracted CD
Track | Start | Length | Start sector | End sector
---------------------------------------------------------
1 | 0:00.00 | 17:37.19 | 0 | 79293
2 | 17:37.19 | 11:34.09 | 79294 | 131352
3 | 29:11.28 | 5:38.68 | 131353 | 156770
4 | 34:50.21 | 9:09.40 | 156771 | 197985
5 | 43:59.61 | 3:23.14 | 197986 | 213224
Track 1
Filename C:\John Carter & Bobby Bradford - Mosaic Select 36 (1969-1979) [FLAC]\Disc 3\01 - And She Speakes.wav
Pre-gap length 0:00:02.00
Peak level 100.0 %
Track quality 100.0 %
Test CRC F10896B1
Copy CRC F10896B1
Track not present in AccurateRip database
Copy OK
Track 2
Filename C:\John Carter & Bobby Bradford - Mosaic Select 36 (1969-1979) [FLAC]\Disc 3\02 - Pinch.wav
Peak level 100.0 %
Track quality 100.0 %
Test CRC 8A21E649
Copy CRC 8A21E649
Track not present in AccurateRip database
Copy OK
Track 3
Filename C:\John Carter & Bobby Bradford - Mosaic Select 36 (1969-1979) [FLAC]\Disc 3\03 - Redwood.wav
Peak level 100.0 %
Track quality 100.0 %
Test CRC B0CA6CFC
Copy CRC B0CA6CFC
Track not present in AccurateRip database
Copy OK
Track 4
Filename C:\John Carter & Bobby Bradford - Mosaic Select 36 (1969-1979) [FLAC]\Disc 3\04 - This Earth Feeling.wav
Peak level 100.0 %
Track quality 100.0 %
Test CRC E48890A3
Copy CRC E48890A3
Track not present in AccurateRip database
Copy OK
Track 5
Filename C:\John Carter & Bobby Bradford - Mosaic Select 36 (1969-1979) [FLAC]\Disc 3\05 - Scramble.wav
Peak level 100.0 %
Track quality 100.0 %
Test CRC CC69AEEF
Copy CRC CC69AEEF
Track not present in AccurateRip database
Copy OK
None of the tracks are present in the AccurateRip database
No errors occurred
End of status report
 
Содержание индексной карты (.CUE)
REM GENRE Jazz
REM DATE 2010
REM DISCID 3B0B1B05
REM COMMENT "ExactAudioCopy v0.99pb4"
PERFORMER "John Carter, Bobby Bradford"
TITLE "Mosaic Select 36 (Disc 3)"
FILE "01 - And She Speakes.wav" WAVE
TRACK 01 AUDIO
TITLE "And She Speakes"
PERFORMER "John Carter, Bobby Bradford"
FLAGS DCP
INDEX 01 00:00:00
FILE "02 - Pinch.wav" WAVE
TRACK 02 AUDIO
TITLE "Pinch"
PERFORMER "John Carter, Bobby Bradford"
FLAGS DCP
INDEX 01 00:00:00
FILE "03 - Redwood.wav" WAVE
TRACK 03 AUDIO
TITLE "Redwood"
PERFORMER "John Carter, Bobby Bradford"
FLAGS DCP
INDEX 01 00:00:00
FILE "04 - This Earth Feeling.wav" WAVE
TRACK 04 AUDIO
TITLE "This Earth Feeling"
PERFORMER "John Carter, Bobby Bradford"
FLAGS DCP
INDEX 01 00:00:00
FILE "05 - Scramble.wav" WAVE
TRACK 05 AUDIO
TITLE "Scramble"
PERFORMER "John Carter, Bobby Bradford"
FLAGS DCP
INDEX 01 00:00:00
По всем вопросам пишите личное сообщение пользователю M0p94ok.
15:46
237
Нет комментариев. Ваш будет первым!