Вы используете незарегистрированную версию компонента "Вкладки"!

Поиск

(Free Jazz, Big Band, British Jazz) George Ricci & The Improverts with Lol Coxhill - A Big Honk - 1992, FLAC (tracks+.cue), lossless

(Free Jazz, Big Band, British Jazz) George Ricci & The Improverts with Lol Coxhill - A Big Honk - 1992, FLAC (tracks+.cue), lossless
Треклист:
George Ricci & The Improverts with Lol Coxhill / A Big Honk
Жанр: Free Jazz, Big Band, British Jazz
Страна-производитель диска: UK
Год издания: 1992
Издатель (лейбл): Slam Productions
Номер по каталогу: CD 202
Страна: UK
Аудиокодек: FLAC (*.flac)
Тип рипа: tracks+.cue
Битрейт аудио: lossless
Продолжительность: 66:50
Источник (релизер): свой фирменный диск
Наличие сканов в содержимом раздачи: нет
Треклист:
1 A Big Honk 4:46
Beyond The Bell, The Wave:
2a Fanfare 2:04
2b Quartet 8:43
-
3 Sixfifty 7:24
4 Lost & Found - Sarcophagus 6:45
5 Little Mystery 5:03
6 Autumn Leaves 7:40
7 3 Songs For Dudu 1 Thoughts 2 Thoughts Into Action 11:36
8 3 Songs For Dudu 3 Thank You 4:46
9 I Can't Get Started 6:10
 
Лог создания рипа
Exact Audio Copy V1.0 beta 3 from 29. August 2011
EAC extraction logfile from 21. December 2012, 19:26
George Ricci & The Improverts with Lol Coxhill / A Big Honk
Used drive : PIONEER DVD-RW DVR-115D Adapter: 0 ID: 0
Read mode : Secure
Utilize accurate stream : Yes
Defeat audio cache : Yes
Make use of C2 pointers : No
Read offset correction : 48
Overread into Lead-In and Lead-Out : No
Fill up missing offset samples with silence : Yes
Delete leading and trailing silent blocks : No
Null samples used in CRC calculations : Yes
Used interface : Installed external ASPI interface
Gap handling : Appended to previous track
Used output format : User Defined Encoder
Selected bitrate : 896 kBit/s
Quality : High
Add ID3 tag : No
Command line compressor : C:\Program Files\Exact Audio Copy\FLAC\FLAC.EXE
Additional command line options : -6 -V -T "ARTIST=%artist%" -T "TITLE=%title%" -T "ALBUM=%albumtitle%" -T "DATE=%year%" -T "TRACKNUMBER=%tracknr%" -T "GENRE=%genre%" -T "COMMENT=%comment%" -T "BAND=%albuminterpret%" -T "COMPOSER=%composer%" %haslyrics%--tag-from-file=LYRICS="%lyricsfile%"%haslyrics% -T "DISCNUMBER=%cdnumber%" -T "TOTALDISCS=%totalcds%" -T "TOTALTRACKS=%numtracks%" %hascover%--picture="%coverfile%"%hascover% %source% -o %dest%
TOC of the extracted CD
Track | Start | Length | Start sector | End sector
---------------------------------------------------------
1 | 0:00.33 | 4:51.35 | 33 | 21892
2 | 4:51.68 | 10:50.72 | 21893 | 70714
3 | 15:42.65 | 7:29.03 | 70715 | 104392
4 | 23:11.68 | 6:50.05 | 104393 | 135147
5 | 30:01.73 | 5:07.70 | 135148 | 158242
6 | 35:09.68 | 7:44.65 | 158243 | 193107
7 | 42:54.58 | 11:36.32 | 193108 | 245339
8 | 54:31.15 | 4:50.60 | 245340 | 267149
9 | 59:22.00 | 7:28.35 | 267150 | 300784
Track 1
Filename D:\zzz\01 - A Big Honk.wav
Pre-gap length 0:00:02.33
Peak level 89.4 %
Extraction speed 4.4 X
Track quality 99.9 %
Test CRC B7697648
Copy CRC B7697648
Accurately ripped (confidence 1) [8553A29E] (AR v1)
Copy OK
Track 2
Filename D:\zzz\02 - Beyond The Bell, The Wave.wav
Pre-gap length 0:00:01.10
Peak level 83.5 %
Extraction speed 6.0 X
Track quality 100.0 %
Test CRC F5A07837
Copy CRC F5A07837
Accurately ripped (confidence 1) [2F0A2B2F] (AR v1)
Copy OK
Track 3
Filename D:\zzz\03 - Six-Fifty.wav
Pre-gap length 0:00:00.10
Peak level 91.4 %
Extraction speed 6.7 X
Track quality 100.0 %
Test CRC 2673A35B
Copy CRC 2673A35B
Accurately ripped (confidence 1) [20C83234] (AR v1)
Copy OK
Track 4
Filename D:\zzz\04 - Lost And Found - Sarcophagus.wav
Pre-gap length 0:00:01.30
Peak level 83.9 %
Extraction speed 7.2 X
Track quality 100.0 %
Test CRC AF397A70
Copy CRC AF397A70
Accurately ripped (confidence 1) [901CFF64] (AR v1)
Copy OK
Track 5
Filename D:\zzz\05 - Little Mystery.wav
Pre-gap length 0:00:01.05
Peak level 90.2 %
Extraction speed 7.4 X
Track quality 100.0 %
Test CRC 2210F8C4
Copy CRC 2210F8C4
Accurately ripped (confidence 1) [C7D1AC5A] (AR v1)
Copy OK
Track 6
Filename D:\zzz\06 - Autumn Leaves.wav
Pre-gap length 0:00:02.13
Peak level 82.8 %
Extraction speed 8.1 X
Track quality 100.0 %
Test CRC 0852CDAC
Copy CRC 0852CDAC
Accurately ripped (confidence 1) [21B58B57] (AR v1)
Copy OK
Track 7
Filename D:\zzz\07 - Thoughts - Thoughts Into Action.wav
Pre-gap length 0:00:01.03
Peak level 89.3 %
Extraction speed 8.7 X
Track quality 100.0 %
Test CRC EBE0988D
Copy CRC EBE0988D
Accurately ripped (confidence 1) [E5F604A3] (AR v1)
Copy OK
Track 8
Filename D:\zzz\08 - Thank You.wav
Peak level 90.5 %
Extraction speed 7.7 X
Track quality 99.9 %
Test CRC B3ECC44F
Copy CRC B3ECC44F
Accurately ripped (confidence 1) [FAF75C7D] (AR v1)
Copy OK
Track 9
Filename D:\zzz\09 - I Can't Get Started.wav
Pre-gap length 0:00:01.40
Peak level 86.1 %
Extraction speed 1.0 X
Track quality 100.0 %
Test CRC 0FBFEA45
Copy CRC 0FBFEA45
Accurately ripped (confidence 1) [804D8F5E] (AR v1)
Copy OK
All tracks accurately ripped
No errors occurred
End of status report
==== Log checksum 4FA4E2FF35C01151F6A1C1E43246B36CD7853086C01ED3587B99F315B85FDEC8 ====
 
Содержание индексной карты (.CUE)
REM GENRE "Big Band"
REM DATE 1992
REM DISCID 770FAA09
REM COMMENT "ExactAudioCopy v1.0b3"
PERFORMER "George Ricci & The Improverts with Lol Coxhill"
TITLE "A Big Honk"
FILE "01 - A Big Honk.wav" WAVE
TRACK 01 AUDIO
TITLE "A Big Honk"
PERFORMER "George Ricci & The Improverts with Lol Coxhill"
PREGAP 00:00:33
INDEX 01 00:00:00
TRACK 02 AUDIO
TITLE "Beyond The Bell, The Wave"
PERFORMER "George Ricci & The Improverts with Lol Coxhill"
INDEX 00 04:50:25
FILE "02 - Beyond The Bell, The Wave.wav" WAVE
INDEX 01 00:00:00
INDEX 02 02:04:17
TRACK 03 AUDIO
TITLE "Six-Fifty"
PERFORMER "George Ricci & The Improverts with Lol Coxhill"
INDEX 00 10:50:62
FILE "03 - Six-Fifty.wav" WAVE
INDEX 01 00:00:00
TRACK 04 AUDIO
TITLE "Lost And Found - Sarcophagus"
PERFORMER "George Ricci & The Improverts with Lol Coxhill"
INDEX 00 07:27:48
FILE "04 - Lost And Found - Sarcophagus.wav" WAVE
INDEX 01 00:00:00
TRACK 05 AUDIO
TITLE "Little Mystery"
PERFORMER "George Ricci & The Improverts with Lol Coxhill"
INDEX 00 06:49:00
FILE "05 - Little Mystery.wav" WAVE
INDEX 01 00:00:00
TRACK 06 AUDIO
TITLE "Autumn Leaves"
PERFORMER "George Ricci & The Improverts with Lol Coxhill"
INDEX 00 05:05:57
FILE "06 - Autumn Leaves.wav" WAVE
INDEX 01 00:00:00
TRACK 07 AUDIO
TITLE "Thoughts - Thoughts Into Action"
PERFORMER "George Ricci & The Improverts with Lol Coxhill"
INDEX 00 07:43:62
FILE "07 - Thoughts - Thoughts Into Action.wav" WAVE
INDEX 01 00:00:00
FILE "08 - Thank You.wav" WAVE
TRACK 08 AUDIO
TITLE "Thank You"
PERFORMER "George Ricci & The Improverts with Lol Coxhill"
INDEX 01 00:00:00
TRACK 09 AUDIO
TITLE "I Can't Get Started"
PERFORMER "George Ricci & The Improverts with Lol Coxhill"
INDEX 00 04:49:20
FILE "09 - I Can't Get Started.wav" WAVE
INDEX 01 00:00:00
 
Лог проверки качества
d:\>d:\aucdtect -d/-m0 d:\zzz\*.wav
auCDtect: CD records authenticity detector, version 0.8.2
Copyright (c) 2004 Oleg Berngardt. All rights reserved.
Copyright (c) 2004 Alexander Djourik. All rights reserved.
------------------------------------------------------------
Processing file: [01. A Big Honk.wav]
------------------------------------------------------------
This track looks like CDDA with probability 100%
------------------------------------------------------------
Processing file: [02. Beyond The Bell, The Wave.wav]
------------------------------------------------------------
Could not qualify the source of this track.
------------------------------------------------------------
Processing file: [03. Six-Fifty.wav]
------------------------------------------------------------
This track looks like MPEG with probability 95%
------------------------------------------------------------
Processing file: [04. Lost And Found - Sarcophagus.wav]
------------------------------------------------------------
This track looks like MPEG with probability 95%
------------------------------------------------------------
Processing file: [05. Little Mystery.wav]
------------------------------------------------------------
This track looks like CDDA with probability 94%
------------------------------------------------------------
Processing file: [06. Autumn Leaves.wav]
------------------------------------------------------------
Could not qualify the source of this track.
------------------------------------------------------------
Processing file: [07. Thoughts - Thoughts Into Action.wav]
------------------------------------------------------------
This track looks like CDDA with probability 100%
------------------------------------------------------------
Processing file: [08. Thank You.wav]
------------------------------------------------------------
This track looks like CDDA with probability 100%
------------------------------------------------------------
Processing file: [09. I Can't Get Started.wav]
------------------------------------------------------------
Could not qualify the source of this track.
------------------------------------------------------------
Final Conclusion:
------------------------------------------------------------
These tracks looks like CDDA with probability 100%
Доп. информация:
 
Album Info
Recording Dates:
Tracks 1, 2a, 3 to 5 on 16 December 1990
Tracks 2b, 6 to 9 on 30 December 1990
all at Doris' Studio Two
 
Состав
Bass – Adrian Hocking
Drums – Andy Goodchild (tracks: 1, 2a, 3 to 5)
Drums, Percussion – Martin Hart (tracks: 2b, 6 to 9)
Guitar – Jez Cook (tracks: 2b, 6 to 9)
Soprano Saxophone – Lol Coxhill (tracks: 2b, 6 to 9)
Tenor Saxophone – Geoff Hawkins
Tenor Saxophone, Soprano Saxophone – George Ricci (2) (tracks: 1, 2a, 3 to 5)
Tenor Saxophone, Trumpet – George Ricci (2) (tracks: 2b, 6 to 9)
Trombone – Griff Griffiths
Trumpet, Flugelhorn – Matt Holland
Trumpet, Flugelhorn, Trumpet [Pocket ] – Dave Holdsworth (tracks: 1, 2a, 3 to 5)
Voice – Kelly Allen (tracks: 1, 2a, 3 to 5)
Any questions -> support@pro-jazz.com. По всем вопросам пишите -> support@pro-jazz.com
06:43
136
Нет комментариев. Ваш будет первым!