Вы используете незарегистрированную версию компонента "Вкладки"!

Поиск

(Avant-Garde Jazz / Punk-Jazz) Ich bin N!ntendo & Mats Gustafsson - Ich bin N!ntendo & Mats Gustafsson - 2012, FLAC (tracks+.cue), lossless

(Avant-Garde Jazz / Punk-Jazz) Ich bin N!ntendo & Mats Gustafsson - Ich bin N!ntendo & Mats Gustafsson - 2012, FLAC (tracks+.cue), lossless
Треклист:
Ich bin N!ntendo & Mats Gustafsson - Ich bin N!ntendo & Mats Gustafsson
Жанр: Avant-Garde Jazz / Punk-Jazz
Страна-производитель диска: Norway
Год издания: 2012
Издатель (лейбл): Va Fongool
Номер по каталогу: VAFCD002
Аудиокодек: FLAC (*.flac)
Тип рипа: tracks+.cue
Битрейт аудио: lossless
Продолжительность: 00:28:27
Источник (релизер): what.cd / спасибо 6060842
Наличие сканов в содержимом раздачи: нет
Треклист:
1. Start First (07:18)
2. End (03:18)
3. Second (17:50)
Доп. информация:
Musicians:
Christian Skår Winther - electric guitar
Magnus Skavhaug Nergaard - electric bass
Joakim Heibø Johansen - drums
Mats Gustafsson - baritone saxophone
Recorded live at Lillesalen Konsertserie, Oslo, March 20, 2012
Ich bin N!ntendo & Mats Gustafsson vafongool.bigcartel.com
Ich bin N!ntendo & Mats Gustafsson allaboutjazz.com
Ich bin N!ntendo & Mats Gustafsson mummucollective.com
Ich bin N!ntendo & Mats Gustafsson freejazz-stef.blogspot.ru
Ich bin N!ntendo & Mats Gustafsson discogs.com
Mats Gustafsson Official Site
Mats Gustafsson from Wikipedia, the free encyclopedia
 
... text ...
... Not for the faint of heart. ~ Eyal Hareuveni (allaboutjazz.com)
 
... reviews ...
Young Norwegian power trio Ich bin N!ntendo is a sonic heir to European power outfits such as the Swedish-Norwegian trio The Thing, Italian punk-jazz trio Zu, and Dutch quartet The Ex. Its affinity with Swedish sax titanMats Gustafsson of The Thing, who guests on this live recording, is obvious. Both enjoy exploring and pushing the physical aspects of their instruments into utter intensity.
This debut album was recorded live in Oslo, later "mixed, mastered and destroyed" by noise artist Lasse Marhaug. More accurately, Marhaug managed to inject some sonic coherence into the dirty, reckless noisy soundscapes of these four musicians, enveloping them in a crisp, vibrating sound.
From the first second, the approach on the first two brief tracks is clear and simple: fast and muscular, with total surrender to the highest volume possible to bear. There is not a second of rest, no attempt to form a linear structure or to show off with virtuosic or technical playing; just a complete release of raw energy, with no inhibitions.
The third track, "Second," is longer, at about 17 minutes, in an album that clocks at a mere 28 minutes. On the this track, Gustafsson's powerful playing can be appreciated. His baritone sax soars over the noisy and distorted chaos and supports the trio's violent sonic outbursts. The trio is willing to take more risks and, on this longer soundscape, references earlier high-octane sound explorers such as the late American guitarist Sonny Sharrock and the Finnish guitarist Raoul Björkenheim.
Not for the faint of heart.
Eyal Hareuveni ~ allaboutjazz.com
 
Лог создания рипа
X Lossless Decoder version 20121027 (142.1)
XLD extraction logfile from 2012-11-27 21:21:13 +0300
Ich bin N!ntendo & Mats Gustafsson / Ich bin N!ntendo & Mats Gustafsson
Used drive : MATSHITA CD-RW CW-8221 (revision GA0K)
Ripper mode : XLD Secure Ripper
Disable audio cache : OK for the drive with a cache less than 1375KiB
Make use of C2 pointers : NO
Read offset correction : 102
Max retry count : 20
Gap status : Analyzed, Appended (except HTOA)
TOC of the extracted CD
Track | Start | Length | Start sector | End sector
---------------------------------------------------------
1 | 00:00:00 | 07:20:37 | 0 | 33036
2 | 07:20:37 | 03:20:65 | 33037 | 48101
3 | 10:41:27 | 17:50:00 | 48102 | 128351
AccurateRip Summary
Disc not found in AccurateRip DB.
All Tracks
Album gain : -8.05 dB
Peak : 1.000000
Statistics
Read error : 0
Jitter error (maybe fixed) : 0
Retry sector count : 0
Damaged sector count : 0
Track 01
Filename : /My/Music/_Grabbed/Ich bin N!ntendo & Mats Gustafsson - 2012 - Ich bin N!ntendo & Mats Gustafsson [FLAC]/01 - Start First.flac
/My/Music/_Grabbed/Ich bin N!ntendo & Mats Gustafsson - 2012 - Ich bin N!ntendo & Mats Gustafsson [MP3 320]/01 - Start First.mp3
/My/Music/_Grabbed/Ich bin N!ntendo & Mats Gustafsson - 2012 - Ich bin N!ntendo & Mats Gustafsson [MP3 V0]/01 - Start First.mp3
Pre-gap length : 00:02:00
Track gain : -8.45 dB
Peak : 1.000000
CRC32 hash (test run) : C4E43A9C
CRC32 hash : C4E43A9C
CRC32 hash (skip zero) : 920845B1
AccurateRip v1 signature : 3A7CFEF3
AccurateRip v2 signature : 324B2F93
->Track not present in AccurateRip database.
Statistics
Read error : 0
Jitter error (maybe fixed) : 0
Retry sector count : 0
Damaged sector count : 0
Track 02
Filename : /My/Music/_Grabbed/Ich bin N!ntendo & Mats Gustafsson - 2012 - Ich bin N!ntendo & Mats Gustafsson [FLAC]/02 - End.flac
/My/Music/_Grabbed/Ich bin N!ntendo & Mats Gustafsson - 2012 - Ich bin N!ntendo & Mats Gustafsson [MP3 320]/02 - End.mp3
/My/Music/_Grabbed/Ich bin N!ntendo & Mats Gustafsson - 2012 - Ich bin N!ntendo & Mats Gustafsson [MP3 V0]/02 - End.mp3
Pre-gap length : 00:02:00
Track gain : -7.93 dB
Peak : 0.974854
CRC32 hash (test run) : 27697BC2
CRC32 hash : 27697BC2
CRC32 hash (skip zero) : AD08F714
AccurateRip v1 signature : 57BF4CA4
AccurateRip v2 signature : D8388E51
->Track not present in AccurateRip database.
Statistics
Read error : 0
Jitter error (maybe fixed) : 0
Retry sector count : 0
Damaged sector count : 0
Track 03
Filename : /My/Music/_Grabbed/Ich bin N!ntendo & Mats Gustafsson - 2012 - Ich bin N!ntendo & Mats Gustafsson [FLAC]/03 - Second.flac
/My/Music/_Grabbed/Ich bin N!ntendo & Mats Gustafsson - 2012 - Ich bin N!ntendo & Mats Gustafsson [MP3 320]/03 - Second.mp3
/My/Music/_Grabbed/Ich bin N!ntendo & Mats Gustafsson - 2012 - Ich bin N!ntendo & Mats Gustafsson [MP3 V0]/03 - Second.mp3
Pre-gap length : 00:02:00
Track gain : -7.75 dB
Peak : 1.000000
CRC32 hash (test run) : 74937098
CRC32 hash : 74937098
CRC32 hash (skip zero) : 228099FB
AccurateRip v1 signature : B98F4737
AccurateRip v2 signature : 51508D6B
->Track not present in AccurateRip database.
Statistics
Read error : 0
Jitter error (maybe fixed) : 0
Retry sector count : 0
Damaged sector count : 0
No errors occurred
End of status report
 
Содержание индексной карты (.CUE)
TITLE "Ich bin N!ntendo & Mats Gustafsson"
PERFORMER "Ich bin N!ntendo & Mats Gustafsson"
REM GENRE "Free Jazz"
REM DATE "2012"
REM DISCID 1906AF03
REM REPLAYGAIN_ALBUM_GAIN -8.05 dB
REM REPLAYGAIN_ALBUM_PEAK 1.000000
FILE "01 - Start First.flac" WAVE
TRACK 01 AUDIO
TITLE "Start First"
REM REPLAYGAIN_TRACK_GAIN -8.45 dB
REM REPLAYGAIN_TRACK_PEAK 1.000000
INDEX 01 00:00:00
TRACK 02 AUDIO
TITLE "End"
REM REPLAYGAIN_TRACK_GAIN -7.93 dB
REM REPLAYGAIN_TRACK_PEAK 0.974854
INDEX 00 07:18:37
FILE "02 - End.flac" WAVE
INDEX 01 00:00:00
TRACK 03 AUDIO
TITLE "Second"
REM REPLAYGAIN_TRACK_GAIN -7.75 dB
REM REPLAYGAIN_TRACK_PEAK 1.000000
INDEX 00 03:18:65
FILE "03 - Second.flac" WAVE
INDEX 01 00:00:00
 
auCDtect Task Manager
-----------------------
DON'T MODIFY THIS FILE
-----------------------
PERFORMER: auCDtect Task Manager, ver. 1.5.1RC6 build 1.5.1.7
Copyright (c) 2008-2010 y-soft. All rights reserved
http://y-soft.org
ANALYZER: auCDtect: CD records authenticity detector, version 0.8.2
Copyright (c) 2004 Oleg Berngardt. All rights reserved.
Copyright (c) 2004 Alexander Djourik. All rights reserved.
FILE: 03 - Second.flac
Size: 115316181 Hash: A4D37FC7A1E9412F2F0CB708786E6985 Accuracy: -m0
Conclusion: CDDA 100%
Signature: 877D4C1D60FE83B69E86E744E1EFA89CBA6F5746
FILE: 02 - End.flac
Size: 23939810 Hash: C2E20E499DE109D4CD5AC623D71FB7DD Accuracy: -m0
Conclusion: CDDA 100%
Signature: EC633702EB9AA5A49BF4EC3A390E784B97ECF9E2
FILE: 01 - Start First.flac
Size: 51531114 Hash: F8E14A98C2125C1FA811B06C66D7F56A Accuracy: -m0
Conclusion: CDDA 100%
Signature: D10023CB5EB2AA1048E3F8125B47535A1F9A5F5F
... релизы с участием MATS GUSTAFSSON на трекере ...
Any questions -> support@pro-jazz.com. По всем вопросам пишите -> support@pro-jazz.com
06:43
195
Нет комментариев. Ваш будет первым!