Вы используете незарегистрированную версию компонента "Вкладки"!

Поиск

(Free Jazz, Avant Garde) Tristan Honsinger, Toshinori Kondo, Peter Kowald, Sabu Toyozumi - What Are You Talking About? (1983) - 2003, FLAC (tracks+.cue) lossless

(Free Jazz, Avant Garde) Tristan Honsinger, Toshinori Kondo, Peter Kowald, Sabu Toyozumi - What Are You Talking About? (1983) - 2003, FLAC (tracks+.cue) lossless
Треклист:
Tristan Honsinger, Toshinori Kondo, Peter Kowald, Sabu Toyozumi - What Are You Talking About?
Жанр: Free Jazz, Avant Garde
Страна-производитель диска: Japan
Год издания диска: (1983) 2003
Издатель (лейбл): DIW Records
Номер по каталогу: DIW-456
Аудио кодек: FLAC (*.flac)
Тип рипа: tracks+.cue
Битрейт аудио: lossless
Продолжительность: 00:40:07
Источник (релизер): GatoMedio
Наличие сканов в содержимом раздачи: да
Треклист:
01 - From Time to Time (Tristan Honsinger) 03:00
02 - Walking (Tristan Honsinger) 03:03
03 - Out the Back Door (Tristan Honsinger) 03:39
04 - What Are You Talking About? (Tristan Honsinger) 04:00
05 - Fried Rice Field in the Summer Night (Toshinori Kondo) 06:09
06 - When Steve Comes to Tokyo (Toshinori Kondo) 03:09
07 - Sasafrakiboo (Tristan Honsinger) 03:50
08 - Can Can Street (Toshinori Kondo) 03:29
09 - Bitter Sweet (Tristan Honsinger) 07:16
10 - Fish Song (Tristan Honsinger) 02:28
The Players:
* Toshinori Kondo - trumpet, Chinese oboe, voice
* Tristan Honsinger - cello, voice
* Peter Kowald - bass, voice
* Sabu Toyozumi - drums, voice
Produced by Toshinori Kondo.
Recorded by Kazuhiro Kasuya at Chestnut Studio in Suzuka Mountain, Japan, on May 24 + 25, 1983.
Originally issued on LP as IMA 003/DIW 1119 (LP) 1983
 
Лог создания рипа (EAC Log)
Exact Audio Copy V0.99 prebeta 5 from 4. May 2009
EAC extraction logfile from 25. December 2010, 11:30
Toshinori Kondo / What Are You Talking About?
Used drive : HL-DT-STDVD-RAM GSA-H55N Adapter: 0 ID: 0
Read mode : Secure
Utilize accurate stream : Yes
Defeat audio cache : Yes
Make use of C2 pointers : No
Read offset correction : 102
Overread into Lead-In and Lead-Out : No
Fill up missing offset samples with silence : Yes
Delete leading and trailing silent blocks : No
Null samples used in CRC calculations : Yes
Used interface : Native Win32 interface for Win NT & 2000
Gap handling : Appended to previous track
Used output format : Internal WAV Routines
Sample format : 44.100 Hz; 16 Bit; Stereo
TOC of the extracted CD
Track | Start | Length | Start sector | End sector
---------------------------------------------------------
1 | 0:00.00 | 3:00.32 | 0 | 13531
2 | 3:00.32 | 3:03.37 | 13532 | 27293
3 | 6:03.69 | 3:39.44 | 27294 | 43762
4 | 9:43.38 | 4:00.60 | 43763 | 61822
5 | 13:44.23 | 6:09.48 | 61823 | 89545
6 | 19:53.71 | 3:09.06 | 89546 | 103726
7 | 23:03.02 | 3:50.60 | 103727 | 121036
8 | 26:53.62 | 3:29.07 | 121037 | 136718
9 | 30:22.69 | 7:16.11 | 136719 | 169429
10 | 37:39.05 | 2:28.52 | 169430 | 180581
Track 1
Filename D:\_Music myRips\Kondo, Honsinger, Kowald, Toyozumi - What are you talking about (1983)\ripped wav\01 - 01 - From Time To Time.wav
Pre-gap length 0:00:02.00
Peak level 95.5 %
Track quality 100.0 %
Test CRC 12F33D90
Copy CRC 12F33D90
Track not present in AccurateRip database
Copy OK
Track 2
Filename D:\_Music myRips\Kondo, Honsinger, Kowald, Toyozumi - What are you talking about (1983)\ripped wav\02 - 02 - Waking.wav
Peak level 96.7 %
Track quality 100.0 %
Test CRC 23DE231A
Copy CRC 23DE231A
Track not present in AccurateRip database
Copy OK
Track 3
Filename D:\_Music myRips\Kondo, Honsinger, Kowald, Toyozumi - What are you talking about (1983)\ripped wav\03 - 03 - Out The Back Door.wav
Peak level 95.4 %
Track quality 100.0 %
Test CRC FC032CE8
Copy CRC FC032CE8
Track not present in AccurateRip database
Copy OK
Track 4
Filename D:\_Music myRips\Kondo, Honsinger, Kowald, Toyozumi - What are you talking about (1983)\ripped wav\04 - 04 - What Are You Talking About .wav
Peak level 94.3 %
Track quality 100.0 %
Test CRC 551FD08B
Copy CRC 551FD08B
Track not present in AccurateRip database
Copy OK
Track 5
Filename D:\_Music myRips\Kondo, Honsinger, Kowald, Toyozumi - What are you talking about (1983)\ripped wav\05 - 05 -Fried Rice Field In The Summer Night.wav
Peak level 95.7 %
Track quality 100.0 %
Test CRC 90706762
Copy CRC 90706762
Track not present in AccurateRip database
Copy OK
Track 6
Filename D:\_Music myRips\Kondo, Honsinger, Kowald, Toyozumi - What are you talking about (1983)\ripped wav\06 - 06 - When Steve Comes To Tokyo.wav
Peak level 96.6 %
Track quality 100.0 %
Test CRC C63BCE91
Copy CRC C63BCE91
Track not present in AccurateRip database
Copy OK
Track 7
Filename D:\_Music myRips\Kondo, Honsinger, Kowald, Toyozumi - What are you talking about (1983)\ripped wav\07 - 07 - Sasafrakiboo.wav
Peak level 100.0 %
Track quality 100.0 %
Test CRC D8850764
Copy CRC D8850764
Track not present in AccurateRip database
Copy OK
Track 8
Filename D:\_Music myRips\Kondo, Honsinger, Kowald, Toyozumi - What are you talking about (1983)\ripped wav\08 - 08 - Can can street.wav
Peak level 95.5 %
Track quality 100.0 %
Test CRC FA0633E1
Copy CRC FA0633E1
Track not present in AccurateRip database
Copy OK
Track 9
Filename D:\_Music myRips\Kondo, Honsinger, Kowald, Toyozumi - What are you talking about (1983)\ripped wav\09 - 09 - Bitter sweet.wav
Peak level 95.7 %
Track quality 100.0 %
Test CRC 7924CC9B
Copy CRC 7924CC9B
Track not present in AccurateRip database
Copy OK
Track 10
Filename D:\_Music myRips\Kondo, Honsinger, Kowald, Toyozumi - What are you talking about (1983)\ripped wav\10 - 10 - Fish song.wav
Peak level 82.5 %
Track quality 100.0 %
Test CRC D96F97CA
Copy CRC D96F97CA
Track not present in AccurateRip database
Copy OK
None of the tracks are present in the AccurateRip database
No errors occurred
End of status report
 
Содержание индексной карты (.CUE)
REM GENRE Jazz
REM DATE 1983
REM DISCID 8509670A
REM COMMENT "ExactAudioCopy v0.99pb5"
PERFORMER "Toshinori Kondo"
TITLE "What Are You Talking About?"
FILE "01 - 01 - From Time To Time.wav" WAVE
TRACK 01 AUDIO
TITLE "01 - From Time To Time"
PERFORMER "Toshinori Kondo"
INDEX 01 00:00:00
FILE "02 - 02 - Waking.wav" WAVE
TRACK 02 AUDIO
TITLE "02 - Waking"
PERFORMER "Toshinori Kondo"
INDEX 01 00:00:00
FILE "03 - 03 - Out The Back Door.wav" WAVE
TRACK 03 AUDIO
TITLE "03 - Out The Back Door"
PERFORMER "Toshinori Kondo"
INDEX 01 00:00:00
FILE "04 - 04 - What Are You Talking About .wav" WAVE
TRACK 04 AUDIO
TITLE "04 - What Are You Talking About?"
PERFORMER "Toshinori Kondo"
INDEX 01 00:00:00
FILE "05 - 05 -Fried Rice Field In The Summer Night.wav" WAVE
TRACK 05 AUDIO
TITLE "05 -Fried Rice Field In The Summer Night"
PERFORMER "Toshinori Kondo"
INDEX 01 00:00:00
FILE "06 - 06 - When Steve Comes To Tokyo.wav" WAVE
TRACK 06 AUDIO
TITLE "06 - When Steve Comes To Tokyo"
PERFORMER "Toshinori Kondo"
INDEX 01 00:00:00
FILE "07 - 07 - Sasafrakiboo.wav" WAVE
TRACK 07 AUDIO
TITLE "07 - Sasafrakiboo"
PERFORMER "Toshinori Kondo"
INDEX 01 00:00:00
FILE "08 - 08 - Can can street.wav" WAVE
TRACK 08 AUDIO
TITLE "08 - Can can street"
PERFORMER "Toshinori Kondo"
INDEX 01 00:00:00
FILE "09 - 09 - Bitter sweet.wav" WAVE
TRACK 09 AUDIO
TITLE "09 - Bitter sweet"
PERFORMER "Toshinori Kondo"
INDEX 01 00:00:00
FILE "10 - 10 - Fish song.wav" WAVE
TRACK 10 AUDIO
TITLE "10 - Fish song"
PERFORMER "Toshinori Kondo"
INDEX 01 00:00:00
 
Об альбоме
A re-issue tribute to Peter Kowald, this was recorded in 1983 in Japan, a period Kondo was aggressively inviting improvisers from all over the world. Essentially a meeting of four improvisers, the music here sometimes surprisingly turns to a form of front-line with a rhythm section playing four-beat. (Jazzloft)
-----
Релиз, безусловно, редкий и редкостный. Сам факт появления Toshinori Kondo Quartet (в представленном составе) можно расценивать как событие незаурядное, принимая во внимание, что квартет, как подсказывает интуиция, просуществовал ровно столько, сколько длилась сессия. Однако Kowald'овские соло как всегда свежи и интересны. -- Drew
-----
Back in Japan, Kondo formed International Music Activities (IMA). His own Quartet (Tristan Honsinger on cello, Peter Kowald on bass, Sabu Toyozumi on drums) released What Are You Talking About?
This rare reissue (Not located in any store. — grommens.tripod.com; Not Available at this time. – walmart) was recorded in May of 1983 in a studio Suzuka Mountain in Japan and features Tristan Honsinger (ICP) on cello, Toshinori Kondo on trumpet & Chinese oboe, Peter Kowald on acoustic bass and Sabu Toyozumi on drums, with each member contributing a bit of odd vocals. — downtownmusicgallery
Of course, like many avant-garde experimenters and musical iconoclasts, Kondo's early musical influences were largely straight-ahead jazz, especially hard bop. Indeed, the name of his college band, the Funky Beaters, fairly reeks of hard bop attitude, especially if one subscribes to the theory that the nickname "bop" came from the sound of a policeman's nightstick giving a suspect a beating. Such was the atmosphere during this artist's college days, when an enormous upheaval took place in the society, fueled on by the radicalism of the '60s. His first love in jazz was Charlie Parker, but unlike many trumpet players, he did not choose one road or the other between the two brass stylists closely associated with him: Dizzy Gillespie and Miles Davis. Both trumpeters became almost equally grounding influences in his playing, which has always combined the dazzling, sometimes outrageous virtuosity of Gillespie with just about every aspect of Davis' career one can think of, from the buzzy nestling of his Harmon mute to the entire electric music direction. The free jazz of Ornette Coleman was the next major influence, but within the spirit of this music, he developed his own frame of reference which was more strongly influenced by his upbringing and religious studies than any particular musical influences. His father had been a shipbuilder, and this man's combination of bouts of hard work and total relaxation became something of a philosophical view. "Is great: doing nothing" and "Best part: no meaning" were typical summations of the Kondo world view during an era when his mastery of English was still rudimentary. — by Eugene Chadbourne, AMG
Any questions -> support@pro-jazz.com. По всем вопросам пишите -> support@pro-jazz.com
11:30
197
Нет комментариев. Ваш будет первым!