Вы используете незарегистрированную версию компонента "Вкладки"!

Поиск

(free jazz, avant-garde) Paul Bley - Fragments [ECM 1320] - 1986, FLAC (tracks+.cue), lossless

Треклист:
Paul Bley
Fragments
Жанр: free jazz, avant-garde
Страна-производитель диска: Germany
Год издания диска: 1986
Издатель (лейбл): ECM Records
Номер по каталогу: ECM 1320
Аудио кодек: FLAC (*.flac)
Тип рипа: tracks+.cue
Битрейт аудио: lossless
Продолжительность: 00:54:08
Источник (релизер): другой трекер
Наличие сканов в содержимом раздачи: да
Треклист:
01. Memories
02. Monica Jane
03. Line Down
04. Seven
05. Closer
06. Once Around The Park
07. Hand Dance
08. For The Love Of Sarah
09. Nothing Ever Was, Anyway
Исполнители:
Paul Bley · (piano)
John Surman · (soprano and baritone saxophones, bass clarinet)
Bill Frisell · (guitar)
Paul Motian · (drums)
 
Лог создания рипа
Exact Audio Copy V0.99 prebeta 4 from 23. January 2008
EAC extraction logfile from 11. June 2009, 22:21
Paul Bley / Fragments
Used drive : TSSTcorpCD/DVDW SH-S183L Adapter: 3 ID: 0
Read mode : Secure
Utilize accurate stream : Yes
Defeat audio cache : Yes
Make use of C2 pointers : No
Read offset correction : 6
Overread into Lead-In and Lead-Out : No
Fill up missing offset samples with silence : Yes
Delete leading and trailing silent blocks : No
Null samples used in CRC calculations : Yes
Used interface : Native Win32 interface for Win NT & 2000
Gap handling : Appended to previous track
Used output format : User Defined Encoder
Selected bitrate : 128 kBit/s
Quality : High
Add ID3 tag : No
Command line compressor : C:\Program Files\Exact Audio Copy\Flac\flac.exe
Additional command line options : -8 -V -T "ARTIST=%a" -T "TITLE=%t" -T "ALBUM=%g" -T "DATE=%y" -T "TRACKNUMBER=%n" -T "TOTALTRACKS=%x" -T "GENRE=%m" -T "ALBUM ARTIST=%v" -T "ALBUMARTIST=%v" -T "COMMENT=EAC V0.99 prebeta 4, Secure Mode, Test & Copy, Accurat
TOC of the extracted CD
Track | Start | Length | Start sector | End sector
---------------------------------------------------------
1 | 0:00.33 | 7:26.12 | 33 | 33494
2 | 7:26.45 | 7:09.08 | 33495 | 65677
3 | 14:35.53 | 7:17.40 | 65678 | 98492
4 | 21:53.18 | 5:44.17 | 98493 | 124309
5 | 27:37.35 | 5:08.43 | 124310 | 147452
6 | 32:46.03 | 6:40.12 | 147453 | 177464
7 | 39:26.15 | 2:54.63 | 177465 | 190577
8 | 42:21.03 | 5:46.35 | 190578 | 216562
9 | 48:07.38 | 6:01.70 | 216563 | 243707
Track 1
Filename E:\rips\ECM vintage\Paul Bley - Fragments (1986) [FLAC]\01 - Memories.wav
Pre-gap length 0:00:02.44
Peak level 62.0 %
Track quality 100.0 %
Test CRC CAEAD75B
Copy CRC CAEAD75B
Track not present in AccurateRip database
Copy OK
Track 2
Filename E:\rips\ECM vintage\Paul Bley - Fragments (1986) [FLAC]\02 - Monica Jane.wav
Pre-gap length 0:00:02.82
Peak level 68.9 %
Track quality 100.0 %
Test CRC 07F1A91C
Copy CRC 07F1A91C
Track not present in AccurateRip database
Copy OK
Track 3
Filename E:\rips\ECM vintage\Paul Bley - Fragments (1986) [FLAC]\03 - Line Down.wav
Pre-gap length 0:00:05.90
Peak level 83.3 %
Track quality 100.0 %
Test CRC F2AA621E
Copy CRC F2AA621E
Track not present in AccurateRip database
Copy OK
Track 4
Filename E:\rips\ECM vintage\Paul Bley - Fragments (1986) [FLAC]\04 - Seven.wav
Pre-gap length 0:00:08.04
Peak level 63.7 %
Track quality 100.0 %
Test CRC 2118F897
Copy CRC 2118F897
Track not present in AccurateRip database
Copy OK
Track 5
Filename E:\rips\ECM vintage\Paul Bley - Fragments (1986) [FLAC]\05 - Closer.wav
Pre-gap length 0:00:08.00
Peak level 76.1 %
Track quality 100.0 %
Test CRC D1E46057
Copy CRC D1E46057
Track not present in AccurateRip database
Copy OK
Track 6
Filename E:\rips\ECM vintage\Paul Bley - Fragments (1986) [FLAC]\06 - Once Around the Park.wav
Pre-gap length 0:00:07.90
Peak level 63.5 %
Track quality 100.0 %
Test CRC 874507CA
Copy CRC 874507CA
Track not present in AccurateRip database
Copy OK
Track 7
Filename E:\rips\ECM vintage\Paul Bley - Fragments (1986) [FLAC]\07 - Hand Dance.wav
Pre-gap length 0:00:06.06
Peak level 68.4 %
Track quality 100.0 %
Test CRC 125139B4
Copy CRC 125139B4
Track not present in AccurateRip database
Copy OK
Track 8
Filename E:\rips\ECM vintage\Paul Bley - Fragments (1986) [FLAC]\08 - For the Love of Sarah.wav
Pre-gap length 0:00:07.40
Peak level 50.2 %
Track quality 100.0 %
Test CRC 91AFF6AC
Copy CRC 91AFF6AC
Track not present in AccurateRip database
Copy OK
Track 9
Filename E:\rips\ECM vintage\Paul Bley - Fragments (1986) [FLAC]\09 - Nothing Ever Was, Anyway.wav
Pre-gap length 0:00:10.30
Peak level 61.0 %
Track quality 100.0 %
Test CRC 8D1C9925
Copy CRC 8D1C9925
Track not present in AccurateRip database
Copy OK
None of the tracks are present in the AccurateRip database
No errors occurred
End of status report
 
Содержание индексной карты (.cue)
REM GENRE "Contemporary Jazz"
REM DATE 1986
REM DISCID 9B0CB109
REM COMMENT "ExactAudioCopy v0.99pb4"
PERFORMER "Paul Bley"
TITLE "Fragments"
FILE "01 - Memories.wav" WAVE
TRACK 01 AUDIO
TITLE "Memories"
PERFORMER "Paul Bley"
PREGAP 00:00:33
INDEX 01 00:00:00
TRACK 02 AUDIO
TITLE "Monica Jane"
PERFORMER "Paul Bley"
INDEX 00 07:23:25
FILE "02 - Monica Jane.wav" WAVE
INDEX 01 00:00:00
TRACK 03 AUDIO
TITLE "Line Down"
PERFORMER "Paul Bley"
INDEX 00 07:03:15
FILE "03 - Line Down.wav" WAVE
INDEX 01 00:00:00
TRACK 04 AUDIO
TITLE "Seven"
PERFORMER "Paul Bley"
INDEX 00 07:09:37
FILE "04 - Seven.wav" WAVE
INDEX 01 00:00:00
TRACK 05 AUDIO
TITLE "Closer"
PERFORMER "Paul Bley"
INDEX 00 05:36:17
FILE "05 - Closer.wav" WAVE
INDEX 01 00:00:00
TRACK 06 AUDIO
TITLE "Once Around the Park"
PERFORMER "Paul Bley"
INDEX 00 05:00:50
FILE "06 - Once Around the Park.wav" WAVE
INDEX 01 00:00:00
TRACK 07 AUDIO
TITLE "Hand Dance"
PERFORMER "Paul Bley"
INDEX 00 06:34:07
FILE "07 - Hand Dance.wav" WAVE
INDEX 01 00:00:00
TRACK 08 AUDIO
TITLE "For the Love of Sarah"
PERFORMER "Paul Bley"
INDEX 00 02:47:33
FILE "08 - For the Love of Sarah.wav" WAVE
INDEX 01 00:00:00
TRACK 09 AUDIO
TITLE "Nothing Ever Was, Anyway"
PERFORMER "Paul Bley"
INDEX 00 05:36:12
FILE "09 - Nothing Ever Was, Anyway.wav" WAVE
INDEX 01 00:00:00
 
AccurateRip
[CUETools log; Date: 21.11.2010 17:35:36; Version: 2.0.9]
Pregap length 00:00:33.
[CTDB TOCID: L90Li6ntGoipfGdY1wRXslZZeMQ-] disk not present in database.
[AccurateRip ID: 0013cd70-008e2bcb-9b0cb109] found.
Track [ CRC ] Status
01 [feb96f9e] (2/4) Accurately ripped
02 [8edc8992] (2/4) Accurately ripped
03 [a1e2c1b5] (0/2) No match
04 [fb169ada] (0/2) No match
05 [4d403e6f] (0/2) No match
06 [e84faa2c] (0/2) No match
07 [7248bc31] (0/2) No match
08 [2bb735ea] (0/2) No match
09 [aa76de4c] (0/2) No match
Offsetted by -1336:
01 [0875711e] (2/4) Accurately ripped
02 [f1e6ec1a] (2/4) Accurately ripped
03 [404d2525] (2/2) Accurately ripped
04 [e73c4ca2] (2/2) Accurately ripped
05 [562661ff] (2/2) Accurately ripped
06 [afa54ef4] (2/2) Accurately ripped
07 [91941311] (2/2) Accurately ripped
08 [d06c20ea] (2/2) Accurately ripped
09 [3c45be74] (2/2) Accurately ripped
Track Peak [ CRC32 ] [W/O NULL] [ LOG ]
-- 83,3 [476FD051] [E22E79E4]
01 62,0 [CAEAD75B] [2A844CE6] CRC32
02 68,9 [07F1A91C] [F075F1C1] CRC32
03 83,3 [F2AA621E] [F3491B25] CRC32
04 63,7 [2118F897] [44D0A845] CRC32
05 76,1 [D1E46057] [A973D72D] CRC32
06 63,5 [874507CA] [18A9B3CF] CRC32
07 68,4 [125139B4] [5164AF16] CRC32
08 50,2 [91AFF6AC] [0637F8EE] CRC32
09 61,0 [8D1C9925] [3F347DE2] CRC32
Any questions -> support@pro-jazz.com. По всем вопросам пишите -> support@pro-jazz.com
05:42
166
Нет комментариев. Ваш будет первым!