Вы используете незарегистрированную версию компонента "Вкладки"!

Поиск

(Avant-Garde / Modern Composition / Tzadik Key Series) Mark Feldman / Sylvie Courvoisier - Oblivia - 2010, FLAC (image+.cue) lossless

(Avant-Garde / Modern Composition / Tzadik Key Series) Mark Feldman / Sylvie Courvoisier - Oblivia - 2010, FLAC (image+.cue) lossless
Треклист:
Mark Feldman / Sylvie Courvoisier - Oblivia

Жанр: Avant-Garde / Modern Composition / Tzadik Key Series
Страна-производитель диска: USA
Год издания диска: 2010
Издатель (лейбл): Tzadik 7633
Аудио кодек: FLAC (*.flac)
Тип рипа: image+.cue
Битрейт аудио: lossless
Продолжительность: 51:33
Источник (релизер): собственный рип
Наличие сканов в содержимом раздачи: нет
Sylvie Courvoisier: piano
Mark Feldman: violin
1. Conky's Lament
2. Dunes
3. Messiaenesque
4. Purveyors
5. Oblivia de Oblivion
6. Double Windsor
7. Bassorah
8. Vis-a-Vis
9. Samarcande
10. Fontanelle
11. Sous un Rêve Huileux
 
Лог создания рипа
Exact Audio Copy V0.99 prebeta 4 from 23. January 2008
EAC extraction logfile from 13. November 2010, 13:16
Mark Feldman / Sylvie Courvoisier / Oblivia
Used drive : TSSTcorpCD/DVDW SH-S182M Adapter: 2 ID: 1
Read mode : Secure
Utilize accurate stream : Yes
Defeat audio cache : Yes
Make use of C2 pointers : No
Read offset correction : 6
Overread into Lead-In and Lead-Out : No
Fill up missing offset samples with silence : Yes
Delete leading and trailing silent blocks : No
Null samples used in CRC calculations : Yes
Used interface : Installed external ASPI interface
Used output format : User Defined Encoder
Selected bitrate : 1024 kBit/s
Quality : High
Add ID3 tag : No
Command line compressor : C:\Program Files\Exact Audio Copy\Flac\flac.exe
Additional command line options : -6 -V -T "ARTIST=%a" -T "TITLE=%t" -T "ALBUM=%g" -T "DATE=%y" -T "TRACKNUMBER=%n" -T "GENRE=%m" -T "COMMENT=EAC FLAC -6" %s
TOC of the extracted CD
Track | Start | Length | Start sector | End sector
---------------------------------------------------------
1 | 0:00.00 | 2:00.06 | 0 | 9005
2 | 2:00.06 | 6:18.55 | 9006 | 37410
3 | 8:18.61 | 2:22.43 | 37411 | 48103
4 | 10:41.29 | 7:25.62 | 48104 | 81540
5 | 18:07.16 | 1:46.46 | 81541 | 89536
6 | 19:53.62 | 4:57.33 | 89537 | 111844
7 | 24:51.20 | 9:23.25 | 111845 | 154094
8 | 34:14.45 | 3:05.13 | 154095 | 167982
9 | 37:19.58 | 2:07.54 | 167983 | 177561
10 | 39:27.37 | 1:45.57 | 177562 | 185493
11 | 41:13.19 | 10:20.14 | 185494 | 232007
Range status and errors
Selected range
Filename C:\Users\Igor\Music\eac\Mark Feldman & Sylvie Courvoisier - Oblivia.wav
Peak level 96.6 %
Range quality 100.0 %
Test CRC E7741E66
Copy CRC E7741E66
Copy OK
No errors occurred
AccurateRip summary
Track 1 accurately ripped (confidence 1) [7D0DE12A]
Track 2 accurately ripped (confidence 1) [71EE0741]
Track 3 accurately ripped (confidence 1) [C0D0DB5C]
Track 4 accurately ripped (confidence 1) [D035F6C5]
Track 5 accurately ripped (confidence 1) [0C65B24F]
Track 6 accurately ripped (confidence 1) [12A59F6E]
Track 7 accurately ripped (confidence 1) [260D7F31]
Track 8 accurately ripped (confidence 1) [BCDA56AD]
Track 9 accurately ripped (confidence 1) [B1DC0A5D]
Track 10 accurately ripped (confidence 1) [29C65970]
Track 11 accurately ripped (confidence 1) [EA046713]
All tracks accurately ripped
End of status report
Any questions -> support@pro-jazz.com. По всем вопросам пишите -> support@pro-jazz.com
05:41
137
Нет комментариев. Ваш будет первым!