Вы используете незарегистрированную версию компонента "Вкладки"!

Поиск

(Free Jazz, Avant-Garde) Michael Formanek: Wide Open Spaces - 1990, APE (image+.cue), lossless

(Free Jazz, Avant-Garde) Michael Formanek: Wide Open Spaces - 1990, APE (image+.cue), lossless
Треклист:
Michael Formanek: Wide Open Spaces (1990)
Жанр: Free Jazz, Avant-Garde
Год выпуска диска: 1990
Производитель диска: enja
Аудио кодек: APE
Тип рипа: image+.cue
Битрейт аудио: lossless
Продолжительность: 54:35
Трэклист:
1 Edge To Edge (2:22)
2 Yahoo Justice (5:31)
3 Fantasy Scape (5:31)
4 Wide Open Spaces (5:38)
5 The Sage (2:39)
6 Cloak And Dagger (4:16)
7 Wild Dreams (2:26)
8 Coffee Time (2:32)
9 Home, At Home (8:35)
10 Slothdancing (5:37)
11 Outerlude (2:27)
12 Razing Walls (2:59)
13 Ancestral Voices (1:35)
14 Edge To Edge (1:32)
15 Open Door (0:35)
Доп. информация:
Label: Enja Records
Catalog#: R2 79648
Format: CD, Album
Country: US
Released: 1990
Genre: Jazz
Style: Contemporary Jazz
Credits: Artwork By [Album Design] - Elisabeth Winckelmann
Bass, Composed By, Producer - Michael Formanek
Drums - Jeff Hirshfield
Executive Producer - Matthias Winckelmann
Guitar - Wayne Krantz
Other [Cover Notes] - Bill Milkowski
Photography [All Other] - Sandra Eisner
Photography [Front] - Lajos Keresztes
Producer [Associate] - Gust W. Tsilis*
Recorded By [Engineer & Digital Editor] - David Baker
Saxophone [Alto & Soprano] - Greg Osby
Violin - Mark Feldman
Notes: Recorded live to 2-track Digital Audio Tape on January 25th & 26th, 1990 at A&R Recording Studios, NYC.
Jeff Hirshfield plays Sonor Drums and Vic Firth Drumsticks.
Michael Formanek uses Schertler Bass Pickups.
Greg Osby appears courtesy of JMT Records.
Thanks to Greg, Mark, Wayne, Jeff, David, Gust, David Gage String Instrument Repair, A&R, and John Saegert.
Very special thanks to Bob Aldrige for encouraging me to see this project through and to my wife Sandra for her support throughout.
(P)&(C)1990 Enja Records
Marketed by Mesa/Bluemoon Recordings, Ltd.
Distributed by Rhino Records, Inc.
 
Отчёт EAC
Exact Audio Copy V0.99 prebeta 4 from 23. January 2008
Отчёт EAC об извлечении, выполненном 2. апреля 2009, 1:20
Michael Formanek / Wide Open Spaces
Дисковод: TSSTcorpCDDVDW SH-S203D Adapter: 3 ID: 0
Режим чтения : Достоверность
Использование точного потока : Да
Отключение кэша аудио : Да
Использование указателей C2 : Нет
Коррекция смещения при чтении : 6
Способность читать области Lead-in и Lead-out : Нет
Заполнение пропущенных сэмплов тишиной : Да
Удаление блоков с тишиной в начале и конце : Нет
При вычислениях CRC использовались нулевые сэмплы : Да
Интерфейс : Установленный внешний ASPI-интерфейс
Выходной формат : Внутренние WAV-операции
Формат сэмплов : 44.100 Гц; 16 бит; стерео
TOC извлечённого CD
Трек | Старт | Длительность | Начальный сектор | Конечный сектор
---------------------------------------------------------------------
1 | 0:00.00 | 2:23.00 | 0 | 10724
2 | 2:23.00 | 5:34.00 | 10725 | 35774
3 | 7:57.00 | 5:31.57 | 35775 | 60656
4 | 13:28.57 | 5:38.60 | 60657 | 86066
5 | 19:07.42 | 2:39.58 | 86067 | 98049
6 | 21:47.25 | 4:18.00 | 98050 | 117399
7 | 26:05.25 | 2:27.72 | 117400 | 128496
8 | 28:33.22 | 2:31.65 | 128497 | 139886
9 | 31:05.12 | 8:37.63 | 139887 | 178724
10 | 39:43.00 | 5:38.50 | 178725 | 204124
11 | 45:21.50 | 2:30.52 | 204125 | 215426
12 | 47:52.27 | 2:59.60 | 215427 | 228911
13 | 50:52.12 | 1:36.13 | 228912 | 236124
14 | 52:28.25 | 1:32.65 | 236125 | 243089
15 | 54:01.15 | 0:33.74 | 243090 | 245638
Характеристики диапазона извлечения и сообщения об ошибках
Выбранный диапазон
Имя файла F:\My Music\TMP\Michael Formanek - Wide Open Spaces.wav
Пиковый уровень 100.0 %
Качество диапазона 100.0 %
CRC копии 0105ABCC
Копирование... OK
Ошибок не произошло
Конец отчёта
Any questions -> support@pro-jazz.com. По всем вопросам пишите -> support@pro-jazz.com
09:38
262
Нет комментариев. Ваш будет первым!