Вы используете незарегистрированную версию компонента "Вкладки"!

Поиск

(Post-Bop / Modern Creative) Jean-Louis Matinier - Confluences - 2003, FLAC (image+.cue), lossless

(Post-Bop / Modern Creative) Jean-Louis Matinier - Confluences - 2003, FLAC (image+.cue), lossless
Треклист:
Jean-Louis Matinier - Confluences
Жанр: Post-Bop / Modern Creative
Год выпуска диска: 2003
Производитель диска: Germany (Enja ENJ 9454-2)
Аудио кодек: FLAC
Тип рипа: image+.cue
Битрейт аудио: lossless
Продолжительность: 54:40
Jean-Louis Matinier accordion
Bobby Rangell flute
Nelson Veras acoustic guitar
Renaud Garcia-Fons acoustic bass
1. Soleil Rouge
2. Rio D'Oro
3. Seven Steppes
4. Plainitude
5. Jardins D'Enfance
6. Sambadynos
7. Unité-Multiple
8. Confluences
9. Mistytorway

 
Review
Parisian accordion master Jean-Louis Matinier, arguably the most adventurous and open-minded virtuoso on his instrument, presents his long-awaited debut album as a bandleader. Matinier studied classical music, then turned to jazz and other improvised styles, easily crossing the borders between ethnic traditions, swinging grooves and daring innovations in the new classical vein. An irreplaceable collaborator for many of his colleagues, Matinier can be heard on recordings by (among others) Louis Sclavis, Gianluigi Trovesi, Michel Godard, Anouar Brahem and - most noticably - bassist Renaud Garcia-Fons. His duet album with Garcia-Fons, "Fuera" (ENJ-9364 2), received highest critical praise. "A CD that grabs you from the first joyous note. It's an exciting trip" (The Gazette, Montreal).
The quartet on "Confluences" is a well established working group with a lot of concerts to their credit. In Matinier's opinion the combination of accordion, flute, guitar and bass is an ideal quartet setting providing a maximum of timbre and dynamics while keeping a clear balance and engaging lightness of sound. Flutist Bobby Rangell from Denver (Colorado, USA) excels with his remarkably heavy, full tone that could previously be enjoyed in the music of Gil Evans, the Paris Salsa All-Stars and Gaucher's "Zap Zappa" project. Although the youngster in the band, Brazilian guitar virtuoso Nelson Veras has already performed with such as Pat Metheny, Michel Petrucciani, Biréli Lagrène, Jean-Michel Pilc and Lee Konitz. Last not least, French-Spanish bassist Renaud Garcia-Fons is a well-known bandleader in his own right, frequently admired for his viola-like con arco playing, his Mediterranean melodicism and his great ensemble albums.
The title "Confluences" points at the fact that on this album many various influences come together to generate something new - Matinier's unmistakably personal vision. Those familiar with the album "Fuera" (that already included several tunes of his) know that Matinier the composer is inspired by folkloristic melodies as well as rock rhythms and loves the surprise of sudden changes and twists. While an artistic statement spangled with virtuosic highlights, these "Confluences" never stop to charm with a dancing spirit and a lovely flow. It is a firework of melody and rhythm, a dramatic stream of music comparable to the wonders of "Fuera" and "Oriental Bass". A debut worth waiting.
 
EAC Report
Exact Audio Copy V0.99 prebeta 4 from 23. January 2008
EAC extraction logfile from 14. March 2009, 12:30
Jean-Louis Matinier / Confluences
Used drive : TSSTcorpCD/DVDW SH-S182M Adapter: 2 ID: 0
Read mode : Secure
Utilize accurate stream : Yes
Defeat audio cache : Yes
Make use of C2 pointers : No
Read offset correction : 6
Overread into Lead-In and Lead-Out : No
Fill up missing offset samples with silence : Yes
Delete leading and trailing silent blocks : No
Null samples used in CRC calculations : Yes
Used interface : Installed external ASPI interface
Used output format : User Defined Encoder
Selected bitrate : 1024 kBit/s
Quality : High
Add ID3 tag : No
Command line compressor : C:\Program Files\Exact Audio Copy\FLAC\FLAC.EXE
Additional command line options : -8 -V -T "ARTIST=%a" -T "TITLE=%t" -T "ALBUM=%g" -T "DATE=%y" -T "TRACKNUMBER=%n" -T "GENRE=%m" -T "COMMENT=%e" %s -o %d
TOC of the extracted CD
Track | Start | Length | Start sector | End sector
---------------------------------------------------------
1 | 0:00.00 | 5:43.32 | 0 | 25756
2 | 5:43.32 | 7:44.16 | 25757 | 60572
3 | 13:27.48 | 6:16.49 | 60573 | 88821
4 | 19:44.22 | 7:10.44 | 88822 | 121115
5 | 26:54.66 | 6:22.42 | 121116 | 149807
6 | 33:17.33 | 5:37.65 | 149808 | 175147
7 | 38:55.23 | 6:36.25 | 175148 | 204872
8 | 45:31.48 | 5:36.65 | 204873 | 230137
9 | 51:08.38 | 3:31.00 | 230138 | 245962
Range status and errors
Selected range
Filename C:\Documents and Settings\Igor\My Documents\My Music\eac\Jean-Louis Matinier - Confluences.wav
Peak level 98.8 %
Range quality 100.0 %
Test CRC D7A73D0C
Copy CRC D7A73D0C
Copy OK
No errors occurred
AccurateRip summary
Track 1 accurately ripped (confidence 3) [CDFEDCDD]
Track 2 accurately ripped (confidence 3) [2C316986]
Track 3 accurately ripped (confidence 3) [09D74DDA]
Track 4 accurately ripped (confidence 3) [6249985E]
Track 5 accurately ripped (confidence 3) [31366F76]
Track 6 accurately ripped (confidence 3) [D6A5C13D]
Track 7 accurately ripped (confidence 3) [7BEF1544]
Track 8 accurately ripped (confidence 3) [E77D8A46]
Track 9 accurately ripped (confidence 3) [A7217216]
All tracks accurately ripped
End of status report
Any questions -> support@pro-jazz.com. По всем вопросам пишите -> support@pro-jazz.com
09:39
142
Нет комментариев. Ваш будет первым!