Вы используете незарегистрированную версию компонента "Вкладки"!

Поиск

(Free Jazz, Avant-Garde) Les Diaboliques (Irene Schweizer, Maggie Nicols, Joelle Leandre) - Splitting Image (1994) {Intakt Rec. Intakt CD 048, Switzerland} - 1997, APE (image+.cue) lossless

(Free Jazz, Avant-Garde) Les Diaboliques (Irene Schweizer, Maggie Nicols, Joelle Leandre) - Splitting Image (1994) {Intakt Rec. Intakt CD 048, Switzerland} - 1997, APE (image+.cue) lossless
Издатель (лейбл):
Треклист:
Les Diaboliques (Irène Schweizer, Maggie Nicols, Joëlle Léandre) - Splitting Image
Жанр: Free Jazz, Avant-Garde
Страна-производитель диска: Switzerland
Год издания диска: 1997
Издатель (лейбл): Intakt Records
Номер по каталогу: Intakt CD 048
Аудио кодек: APE (*.ape)
Тип рипа: image+.cue
Битрейт аудио: lossless
Продолжительность: 00:53:07
Источник (релизер): basa005
Наличие сканов в содержимом раздачи: да
Треклист:
01. Hélas! (03.49)
02. Uncle Peter (01.48)
03. The whole world (02.42)
04. Bring out your dead (01.07)
05. Molto strano (02.34)
06. Stevens' game (04.01)
07. In a balladesque mood (04.13)
08. Splitting image (02.03)
09. Two waves (03.54)
10. Silly boy (03.57)
11. Who is Adam? (06.08)
12. The very last tango (02.36)
13. Littel Nicols (02.23)
14. Infinite diversity (05.10)
15. Quifecit (04.35)
16. Valse diabolique II (02.07)
Recorded: November 7 & 8, 1994 at Rote Fabrik Zurich
Personnel:
Irène Schweizer - piano
Maggie Nicols - voice
Joëlle Léandre - bass
 
Лог создания рипа (EAC Log)
Exact Audio Copy V1.0 beta 2 from 29. April 2011
EAC extraction logfile from 28. July 2011, 17:02
Les Diaboliques / Splitting Image
Used drive : TSSTcorpCDDVDW SE-S204N Adapter: 2 ID: 0
Read mode : Secure
Utilize accurate stream : Yes
Defeat audio cache : Yes
Make use of C2 pointers : No
Read offset correction : 6
Overread into Lead-In and Lead-Out : No
Fill up missing offset samples with silence : Yes
Delete leading and trailing silent blocks : No
Null samples used in CRC calculations : No
Used interface : Native Win32 interface for Win NT & 2000
Used output format : Internal WAV Routines
Sample format : 44.100 Hz; 16 Bit; Stereo
TOC of the extracted CD
Track | Start | Length | Start sector | End sector
---------------------------------------------------------
1 | 0:00.00 | 3:49.59 | 0 | 17233
2 | 3:49.59 | 1:47.74 | 17234 | 25332
3 | 5:37.58 | 2:42.00 | 25333 | 37482
4 | 8:19.58 | 1:07.02 | 37483 | 42509
5 | 9:26.60 | 2:33.74 | 42510 | 54058
6 | 12:00.59 | 4:00.74 | 54059 | 72132
7 | 16:01.58 | 4:13.01 | 72133 | 91108
8 | 20:14.59 | 2:03.02 | 91109 | 100335
9 | 22:17.61 | 3:53.73 | 100336 | 117883
10 | 26:11.59 | 3:56.74 | 117884 | 135657
11 | 30:08.58 | 6:08.03 | 135658 | 163260
12 | 36:16.61 | 2:35.74 | 163261 | 174959
13 | 38:52.60 | 2:22.74 | 174960 | 185683
14 | 41:15.59 | 5:10.00 | 185684 | 208933
15 | 46:25.59 | 4:34.74 | 208934 | 229557
16 | 51:00.58 | 2:07.08 | 229558 | 239090
Range status and errors
Selected range
Filename C:\avaxhome\Les Diaboliques - Splitting Image.wav
Peak level 92.1 %
Extraction speed 6.8 X
Range quality 99.9 %
Copy CRC 7667E2AB
Copy OK
No errors occurred
AccurateRip summary
Track 1 not present in database
Track 2 not present in database
Track 3 not present in database
Track 4 not present in database
Track 5 not present in database
Track 6 not present in database
Track 7 not present in database
Track 8 not present in database
Track 9 not present in database
Track 10 not present in database
Track 11 not present in database
Track 12 not present in database
Track 13 not present in database
Track 14 not present in database
Track 15 not present in database
Track 16 not present in database
None of the tracks are present in the AccurateRip database
End of status report
==== Log checksum 6A05A95D324963A7CE27BB0824FD6BFE65BB2A47C006E74CC1F964AFD5D13F1D ====
 
Содержание индексной карты (.CUE)
REM GENRE Jazz
REM DATE 1997
REM DISCID D60C7310
REM COMMENT "ExactAudioCopy v1.0b2"
PERFORMER "Les Diaboliques"
TITLE "Splitting Image"
FILE "Les Diaboliques - Splitting Image.APE" WAVE
TRACK 01 AUDIO
TITLE "Helas!"
PERFORMER "Les Diaboliques"
FLAGS DCP
INDEX 01 00:00:00
TRACK 02 AUDIO
TITLE "Uncle Peter"
PERFORMER "Les Diaboliques"
FLAGS DCP
INDEX 00 03:49:57
INDEX 01 03:49:59
TRACK 03 AUDIO
TITLE "The Whole World"
PERFORMER "Les Diaboliques"
FLAGS DCP
INDEX 01 05:37:58
TRACK 04 AUDIO
TITLE "Bring Out Your Dead"
PERFORMER "Les Diaboliques"
FLAGS DCP
INDEX 00 08:19:47
INDEX 01 08:19:58
TRACK 05 AUDIO
TITLE "Molto Strano"
PERFORMER "Les Diaboliques"
FLAGS DCP
INDEX 01 09:26:60
TRACK 06 AUDIO
TITLE "Stevens' Game"
PERFORMER "Les Diaboliques"
FLAGS DCP
INDEX 01 12:00:59
TRACK 07 AUDIO
TITLE "In a Balladesque Mood"
PERFORMER "Les Diaboliques"
FLAGS DCP
INDEX 01 16:01:58
TRACK 08 AUDIO
TITLE "Splitting Image"
PERFORMER "Les Diaboliques"
FLAGS DCP
INDEX 00 20:14:56
INDEX 01 20:14:59
TRACK 09 AUDIO
TITLE "Two Waves"
PERFORMER "Les Diaboliques"
FLAGS DCP
INDEX 01 22:17:61
TRACK 10 AUDIO
TITLE "Silly Boy"
PERFORMER "Les Diaboliques"
FLAGS DCP
INDEX 01 26:11:59
TRACK 11 AUDIO
TITLE "Who Is Adam?"
PERFORMER "Les Diaboliques"
FLAGS DCP
INDEX 01 30:08:58
TRACK 12 AUDIO
TITLE "The Very Last Tango"
PERFORMER "Les Diaboliques"
FLAGS DCP
INDEX 01 36:16:61
TRACK 13 AUDIO
TITLE "Little Nicols"
PERFORMER "Les Diaboliques"
FLAGS DCP
INDEX 01 38:52:60
TRACK 14 AUDIO
TITLE "Infinite Diversity"
PERFORMER "Les Diaboliques"
FLAGS DCP
INDEX 01 41:15:59
TRACK 15 AUDIO
TITLE "Quifecit"
PERFORMER "Les Diaboliques"
FLAGS DCP
INDEX 01 46:25:59
TRACK 16 AUDIO
TITLE "Valse Diabolique II"
PERFORMER "Les Diaboliques"
FLAGS DCP
INDEX 01 51:00:58
 
Info
By GLENN ASTARITA
“Les Diaboliques” is an expressionistic feast for the mind as told through the unique voices of bassist Joelle Leandre’, vocalist Maggie Nicols and pianist Irene Schweizer. A supergroup of sorts, these estimable performers are among the finest musicians in Europe, or on the planet for that matter as their respective accomplishments and rather lengthy resumes speak volumes.......
On Splitting Image, this Trio delve into highly conversational interaction while purveying an overall sense of melodrama throughout these sixteen pieces. “Helas!”, features the stylistic scat-like vocals of Maggie Nicols as the band improvise through countless themes and motifs while maintaining a sense of continuity and purpose. Here, Ms. Nicols vocalizes atop amiable and multi-textured chord progressions provided by pianist Irene Schweizer as Joelle Leandre maintains the protean pulse via her much heralded if not legendary expertise on double-bass. The passages are meaningful and undoubtedly interesting yet the band pursue an affable or almost casual atmosphere throughout. Maggie Nicols’ expansive vocal range and diverse tactics are spellbinding as she skirts through octaves as if it were child’s play. Schweizer and Leandre provide heaps of melody, counter-melody, contrasting undercurrents and ever-evolving thematic development. “In a Balladesque Mood” is pure theater! Here, Ms Nicols recites/vocalizes lyrics in somewhat of a mock fashion as she fuses traditional balladry with an entertaining nonchalant cabaret style approach. Nicols advances the pace on “Splitting Image” through fast and furious scat-like incantations. “Who Is Adam” offers another slice of musical improvisation along with Nicols’ operatic and at times cabaret-like spoken word iterations atop a somewhat kaleidoscopic musical backdrop.
Splitting Image is magnificent, beguiling and brimming with vivid imagery as it elicits thoughts of an off-Broadway play – complete with hefty doses of theatrical mannerisms, portrayed through music and lyric. Recommended
... Отличный альбом! ...
Any questions -> support@pro-jazz.com. По всем вопросам пишите -> support@pro-jazz.com
15:22
175
Нет комментариев. Ваш будет первым!