Вы используете незарегистрированную версию компонента "Вкладки"!

Поиск

(Free Jazz, Avant-Garde) Anthony Braxton (w. Adelhard Roidinger, Tony Oxley) - Seven Compositions (Trio) 1989 {Hat Hut Records hatOLOGY 658, Switzerland} - 2009, FLAC (tracks+.cue) lossless

(Free Jazz, Avant-Garde) Anthony Braxton (w. Adelhard Roidinger, Tony Oxley) - Seven Compositions (Trio) 1989 {Hat Hut Records hatOLOGY 658, Switzerland} - 2009, FLAC (tracks+.cue) lossless
Треклист:
Anthony Braxton - Seven Compositions (Trio) 1989
Жанр: Free Jazz, Avant-Garde
Страна-производитель диска: Switzerland
Год издания диска: 2009
Издатель (лейбл): Hat Hut Records
Номер по каталогу: hatOLOGY 658
Аудио кодек: FLAC (*.flac)
Тип рипа: tracks+.cue
Битрейт аудио: lossless
Продолжительность: 00:58:22
Источник (релизер): mishka1981
Наличие сканов в содержимом раздачи: да
Треклист:
1. Composition 40D / Composition 40G (+63)
2. All The Things You Are / The Angular Apron / Composition 6A
3. Composition 40J / Composition 110A (+108B + 69J)
Recorded March 21, 1989 at Maison de la Culture, Amiens / France by Peter Pfister, assisted by Bruno Menny.
New CD-master February 2009 by Peter Pfister.
2009, 2nd edition.
Personnel:
Anthony Braxton - alto, C-melody, soprano and sopranino saxophones, clarinet & flute
Adelhard Roidinger - double bass
Tony Oxley - drums
 
Лог создания рипа (EAC Log)
Exact Audio Copy V1.0 beta 1 from 15. November 2010
EAC extraction logfile from 29. July 2011, 14:13
Anthony Braxton / Seven Compositions (Trio) 1989
Used drive : TSSTcorpCDDVDW TS-L633A Adapter: 3 ID: 0
Read mode : Secure
Utilize accurate stream : Yes
Defeat audio cache : Yes
Make use of C2 pointers : No
Read offset correction : 6
Overread into Lead-In and Lead-Out : No
Fill up missing offset samples with silence : Yes
Delete leading and trailing silent blocks : No
Null samples used in CRC calculations : Yes
Used interface : Installed external ASPI interface
Gap handling : Appended to previous track
Used output format : User Defined Encoder
Selected bitrate : 896 kBit/s
Quality : High
Add ID3 tag : No
Command line compressor : C:\Program Files\Exact Audio Copy\FLAC\FLAC.EXE
Additional command line options : -8 -V -T "ARTIST=%a" -T "TITLE=%t" -T "ALBUM=%g" -T "DATE=%y" -T "TRACKNUMBER=%n" -T "TOTALTRACKS=%x" -T "GENRE=%m" -T "ALBUMARTIST=%v" -T "ALBUM ARTIST=%v" -T "COMMENT=EAC Secure Mode, Test & Copy, AccurateRip, FLAC -8" %s
TOC of the extracted CD
Track | Start | Length | Start sector | End sector
---------------------------------------------------------
1 | 0:00.01 | 19:34.61 | 1 | 88111
2 | 19:34.62 | 26:40.08 | 88112 | 208119
3 | 46:14.70 | 12:07.27 | 208120 | 262671
Track 1
Filename C:\MY RIPS\01 - Compositions 40D & 40C (+63).wav
Pre-gap length 0:00:02.01
Peak level 99.3 %
Extraction speed 1.3 X
Track quality 99.9 %
Test CRC AB9BC77F
Copy CRC AB9BC77F
Accurately ripped (confidence 2) [872BE754]
Copy OK
Track 2
Filename C:\MY RIPS\02 - All the things you are , The Angular Apron , Composition 6A.wav
Peak level 99.5 %
Extraction speed 2.0 X
Track quality 100.0 %
Test CRC 316216A6
Copy CRC 316216A6
Accurately ripped (confidence 2) [A16A2601]
Copy OK
Track 3
Filename C:\MY RIPS\03 - Compositions 40J & 110A (+108B + 69J).wav
Copy aborted
2 track(s) accurately ripped
1 track(s) canceled
Some tracks could not be verified as accurate
There were errors
End of status report
==== Log checksum D78EBBEE1AAEA7DCFA0D7D03C51A77A0647AFD9A602BB646F6B93BF7AF05F8F5 ====
------------------------------------------------------------
Exact Audio Copy V1.0 beta 1 from 15. November 2010
EAC extraction logfile from 29. July 2011, 14:22
Anthony Braxton / Seven Compositions (Trio) 1989
Used drive : TSSTcorpCDDVDW TS-L633A Adapter: 3 ID: 0
Read mode : Secure
Utilize accurate stream : Yes
Defeat audio cache : Yes
Make use of C2 pointers : No
Read offset correction : 6
Overread into Lead-In and Lead-Out : No
Fill up missing offset samples with silence : Yes
Delete leading and trailing silent blocks : No
Null samples used in CRC calculations : Yes
Used interface : Installed external ASPI interface
Gap handling : Appended to previous track
Used output format : User Defined Encoder
Selected bitrate : 896 kBit/s
Quality : High
Add ID3 tag : No
Command line compressor : C:\Program Files\Exact Audio Copy\FLAC\FLAC.EXE
Additional command line options : -8 -V -T "ARTIST=%a" -T "TITLE=%t" -T "ALBUM=%g" -T "DATE=%y" -T "TRACKNUMBER=%n" -T "TOTALTRACKS=%x" -T "GENRE=%m" -T "ALBUMARTIST=%v" -T "ALBUM ARTIST=%v" -T "COMMENT=EAC Secure Mode, Test & Copy, AccurateRip, FLAC -8" %s
TOC of the extracted CD
Track | Start | Length | Start sector | End sector
---------------------------------------------------------
1 | 0:00.01 | 19:34.61 | 1 | 88111
2 | 19:34.62 | 26:40.08 | 88112 | 208119
3 | 46:14.70 | 12:07.27 | 208120 | 262671
Track 3
Filename C:\MY RIPS\03 - Compositions 40J & 110A (+108B + 69J).wav
Peak level 99.3 %
Extraction speed 2.2 X
Track quality 99.9 %
Copy CRC 4B577A64
Accurately ripped (confidence 2) [A3FB0F87]
Copy OK
All tracks accurately ripped
No errors occurred
End of status report
==== Log checksum D5E510A376310D1994A7DB83293828D03502A7F794CFFE66047647894F9EA7D6 ====
 
Содержание индексной карты (.CUE)
REM GENRE Jazz
REM DATE 1989
REM DISCID 270DAE03
REM COMMENT "ExactAudioCopy v1.0b1"
PERFORMER "Anthony Braxton"
TITLE "Seven Compositions (Trio) 1989"
FILE "01 - Compositions 40D & 40G (+63).wav" WAVE
TRACK 01 AUDIO
TITLE "Compositions 40D & 40G (+63)"
PERFORMER "Anthony Braxton"
PREGAP 00:00:01
INDEX 01 00:00:00
FILE "02 - All The Things You Are , The Angular Apron , Composition 6A.wav" WAVE
TRACK 02 AUDIO
TITLE "All The Things You Are , The Angular Apron , Composition 6A"
PERFORMER "Anthony Braxton"
INDEX 01 00:00:00
FILE "03 - Compositions 40J & 110A (+108B + 69J).wav" WAVE
TRACK 03 AUDIO
TITLE "Compositions 40J & 110A (+108B + 69J)"
PERFORMER "Anthony Braxton"
INDEX 01 00:00:00
 
AMG Review
by Scott Yanow
The great avant-garde reed player Anthony Braxton (who on this set switches between alto, C-melody sax, clarinet, flute, soprano and sopranino), bassist Adelhard Roidinger and drummer Tony Oxley play five of Braxton's complex originals, Oxley's "The Angular Apron" and the standard "All the Things You Are." As usual Braxton's improvising is quite advanced and original but is colorful and fiery enough to always hold on to open-eared listener's attention. This is one of literally dozens of stimulating Anthony Braxton sessions currently available.
Any questions -> support@pro-jazz.com. По всем вопросам пишите -> support@pro-jazz.com
15:23
185
Нет комментариев. Ваш будет первым!