Вы используете незарегистрированную версию компонента "Вкладки"!

Поиск

(Free Jazz, Avant-Garde Jazz) The Daniel Rosenboom Septet - Fallen Angeles - 2011, FLAC (tracks+.cue), lossless

(Free Jazz, Avant-Garde Jazz) The Daniel Rosenboom Septet - Fallen Angeles - 2011, FLAC (tracks+.cue), lossless
Треклист:
The Daniel Rosenboom Septet / Fallen Angeles
Жанр: Free Jazz, Avant-Garde Jazz
Страна-производитель диска: US
Год издания: 2011
Издатель (лейбл): Nine Winds Records
Номер по каталогу: NWCD0297
Страна: US
Аудиокодек: FLAC (*.flac)
Тип рипа: tracks+.cue
Битрейт аудио: lossless
Продолжительность: 46:12
Источник (релизер): свой фирменный диск
Наличие сканов в содержимом раздачи: нет
Треклист:
1. Ideology
2. Fallen Angeles
3. Meditation
4. Confrontation
5. Fury
6. Transformation
7. Elation
8. Espionage
9. While She Slept
 
Лог создания рипа
Exact Audio Copy V1.0 beta 2 from 29. April 2011
EAC extraction logfile from 2. November 2012, 23:11
The Daniel Rosenboom Septet / Fallen Angeles
Used drive : PIONEER DVD-RW DVR-115D Adapter: 0 ID: 0
Read mode : Secure
Utilize accurate stream : Yes
Defeat audio cache : Yes
Make use of C2 pointers : No
Read offset correction : 48
Overread into Lead-In and Lead-Out : No
Fill up missing offset samples with silence : Yes
Delete leading and trailing silent blocks : No
Null samples used in CRC calculations : Yes
Used interface : Installed external ASPI interface
Gap handling : Appended to previous track
Used output format : User Defined Encoder
Selected bitrate : 896 kBit/s
Quality : High
Add ID3 tag : No
Command line compressor : C:\Program Files\Exact Audio Copy\FLAC\FLAC.EXE
Additional command line options : -6 -V -T "ARTIST=%artist%" -T "TITLE=%title%" -T "ALBUM=%albumtitle%" -T "DATE=%year%" -T "TRACKNUMBER=%tracknr%" -T "GENRE=%genre%" -T "COMMENT=%comment%" -T "BAND=%albuminterpret%" -T "COMPOSER=%composer%" %haslyrics%--ta
TOC of the extracted CD
Track | Start | Length | Start sector | End sector
---------------------------------------------------------
1 | 0:00.00 | 4:27.65 | 0 | 20089
2 | 4:27.65 | 4:32.72 | 20090 | 40561
3 | 9:00.62 | 6:27.15 | 40562 | 69601
4 | 15:28.02 | 2:54.20 | 69602 | 82671
5 | 18:22.22 | 5:34.37 | 82672 | 107758
6 | 23:56.59 | 5:40.26 | 107759 | 133284
7 | 29:37.10 | 6:23.42 | 133285 | 162051
8 | 36:00.52 | 4:50.71 | 162052 | 183872
9 | 40:51.48 | 5:20.68 | 183873 | 207940
Track 1
Filename D:\zzz\01 - Ideology.wav
Pre-gap length 0:00:02.00
Peak level 100.0 %
Extraction speed 4.4 X
Track quality 100.0 %
Test CRC BE3D788E
Copy CRC BE3D788E
Track not present in AccurateRip database
Copy OK
Track 2
Filename D:\zzz\02 - Fallen Angeles.wav
Pre-gap length 0:00:02.00
Peak level 100.0 %
Extraction speed 4.9 X
Track quality 100.0 %
Test CRC A6BE4FF0
Copy CRC A6BE4FF0
Track not present in AccurateRip database
Copy OK
Track 3
Filename D:\zzz\03 - Meditation.wav
Pre-gap length 0:00:01.00
Peak level 99.4 %
Extraction speed 5.6 X
Track quality 100.0 %
Test CRC 7581D94C
Copy CRC 7581D94C
Track not present in AccurateRip database
Copy OK
Track 4
Filename D:\zzz\04 - Confrontation.wav
Pre-gap length 0:00:01.00
Peak level 99.7 %
Extraction speed 4.7 X
Track quality 99.9 %
Test CRC ACFA53CA
Copy CRC ACFA53CA
Track not present in AccurateRip database
Copy OK
Track 5
Filename D:\zzz\05 - Fury.wav
Pre-gap length 0:00:01.00
Peak level 100.0 %
Extraction speed 6.3 X
Track quality 100.0 %
Test CRC 111E5F82
Copy CRC 111E5F82
Track not present in AccurateRip database
Copy OK
Track 6
Filename D:\zzz\06 - Transformation.wav
Pre-gap length 0:00:00.30
Peak level 99.2 %
Extraction speed 6.8 X
Track quality 100.0 %
Test CRC 1883134C
Copy CRC 1883134C
Track not present in AccurateRip database
Copy OK
Track 7
Filename D:\zzz\07 - Elation.wav
Pre-gap length 0:00:00.30
Peak level 99.8 %
Extraction speed 7.3 X
Track quality 100.0 %
Test CRC 2C8F7083
Copy CRC 2C8F7083
Track not present in AccurateRip database
Copy OK
Track 8
Filename D:\zzz\08 - Espionage.wav
Pre-gap length 0:00:02.00
Peak level 99.6 %
Extraction speed 7.4 X
Track quality 100.0 %
Test CRC BB69FDA6
Copy CRC BB69FDA6
Track not present in AccurateRip database
Copy OK
Track 9
Filename D:\zzz\09 - While She Slept.wav
Pre-gap length 0:00:04.00
Peak level 99.8 %
Extraction speed 7.7 X
Track quality 100.0 %
Test CRC 92F74A5B
Copy CRC 92F74A5B
Track not present in AccurateRip database
Copy OK
None of the tracks are present in the AccurateRip database
No errors occurred
End of status report
==== Log checksum 4AE800096154489D05221F21FBD4634A62F86077256BC0588C019D7797CF9803 ====
 
Содержание индексной карты (.CUE)
REM GENRE Avantgarde
REM DATE 2011
REM DISCID 710AD409
REM COMMENT "ExactAudioCopy v1.0b2"
PERFORMER "The Daniel Rosenboom Septet"
TITLE "Fallen Angeles"
FILE "01 - Ideology.wav" WAVE
TRACK 01 AUDIO
TITLE "Ideology"
PERFORMER "The Daniel Rosenboom Septet"
FLAGS DCP
INDEX 01 00:00:00
TRACK 02 AUDIO
TITLE "Fallen Angeles"
PERFORMER "The Daniel Rosenboom Septet"
FLAGS DCP
INDEX 00 04:25:65
FILE "02 - Fallen Angeles.wav" WAVE
INDEX 01 00:00:00
TRACK 03 AUDIO
TITLE "Meditation"
PERFORMER "The Daniel Rosenboom Septet"
FLAGS DCP
INDEX 00 04:31:72
FILE "03 - Meditation.wav" WAVE
INDEX 01 00:00:00
TRACK 04 AUDIO
TITLE "Confrontation"
PERFORMER "The Daniel Rosenboom Septet"
FLAGS DCP
INDEX 00 06:26:15
FILE "04 - Confrontation.wav" WAVE
INDEX 01 00:00:00
TRACK 05 AUDIO
TITLE "Fury"
PERFORMER "The Daniel Rosenboom Septet"
FLAGS DCP
INDEX 00 02:53:20
FILE "05 - Fury.wav" WAVE
INDEX 01 00:00:00
TRACK 06 AUDIO
TITLE "Transformation"
PERFORMER "The Daniel Rosenboom Septet"
FLAGS DCP
INDEX 00 05:34:07
FILE "06 - Transformation.wav" WAVE
INDEX 01 00:00:00
TRACK 07 AUDIO
TITLE "Elation"
PERFORMER "The Daniel Rosenboom Septet"
FLAGS DCP
INDEX 00 05:39:71
FILE "07 - Elation.wav" WAVE
INDEX 01 00:00:00
TRACK 08 AUDIO
TITLE "Espionage"
PERFORMER "The Daniel Rosenboom Septet"
FLAGS DCP
INDEX 00 06:21:42
FILE "08 - Espionage.wav" WAVE
INDEX 01 00:00:00
TRACK 09 AUDIO
TITLE "While She Slept"
PERFORMER "The Daniel Rosenboom Septet"
FLAGS DCP
INDEX 00 04:46:71
FILE "09 - While She Slept.wav" WAVE
INDEX 01 00:00:00
 
Лог проверки качества
d:\>d:\aucdtect -d/-m0 d:\zzz\*.wav
auCDtect: CD records authenticity detector, version 0.8.2
Copyright (c) 2004 Oleg Berngardt. All rights reserved.
Copyright (c) 2004 Alexander Djourik. All rights reserved.
------------------------------------------------------------
Processing file: [01. Ideology.wav]
------------------------------------------------------------
This track looks like CDDA with probability 100%
------------------------------------------------------------
Processing file: [02. Fallen Angeles.wav]
------------------------------------------------------------
This track looks like CDDA with probability 100%
------------------------------------------------------------
Processing file: [03. Meditation.wav]
------------------------------------------------------------
This track looks like CDDA with probability 99%
------------------------------------------------------------
Processing file: [04. Confrontation.wav]
------------------------------------------------------------
This track looks like CDDA with probability 100%
------------------------------------------------------------
Processing file: [05. Fury.wav]
------------------------------------------------------------
This track looks like CDDA with probability 100%
------------------------------------------------------------
Processing file: [06. Transformation.wav]
------------------------------------------------------------
This track looks like CDDA with probability 100%
------------------------------------------------------------
Processing file: [07. Elation.wav]
------------------------------------------------------------
This track looks like CDDA with probability 100%
------------------------------------------------------------
Processing file: [08. Espionage.wav]
------------------------------------------------------------
This track looks like CDDA with probability 100%
------------------------------------------------------------
Processing file: [09. While She Slept.wav]
------------------------------------------------------------
This track looks like CDDA with probability 100%
------------------------------------------------------------
Final Conclusion:
------------------------------------------------------------
These tracks looks like CDDA with probability 100%
Доп. информация:
 
Review
The son of jazz pianist David Rosenboom (who serves as a member of the septet) and one of the most innovative modern trumpet virtuosos, Los Angeles' own Daniel Rosenboom has come a long way in a short time. His 2006 debut Bloodier, Mean Son took the underground jazz world by surprise through its strange combination of jazz, rock, and electronics. Since then, he has released one other solo album, five with his experimental-jazz-metal bands PLOTZ! and DR. MiNT, and six with other groups, all leading up to his most recent release of Fallen Angeles.
Rosenboom's playing is as strong as ever, and his composition skills shine on the album. Though it is one of the only all-acoustic albums he has performed on, the intensity of his earlier work still burns through, and the balance between the instrumentalists is strong. Rosenboom may be the bandleader here, but he’s not out of place in the group of talented musicians. Fallen Angeles is tight and clean; with just over a 45 minute runtime, the seven musicians take the listener through a dark, mysterious, and yet still romantic view of their home city.
The album begins with “Ideology”, one of the standout tracks, and one of the heaviest. Quick horn lines and screaming upper register down to low tone jumps grab the listener from the very beginning. From there, we hear the septet slow to the brooding title track, briefly pick up again, and enter the five movement suite that makes up the centerpiece of the album.
“Meditation” builds slowly through soft and mysterious piano and flute lines to the raging intensity of “Confrontation,” a sax and trumpet highlight, and “Fury,” where Vinny Golia (not a member of the live lineup) growls out melodies on his tubax (modified contrabass saxophone) and Rosenboom replies. “Transformation” brings the intensity down again, followed by some of Rosenboom’s more bluesy writing as the bass, piano, drums, and bass clarinet are highlighted, and transitions into “Elation,” a track that begins with soft and sweet piano chords but picks up speed and ends with a dissonant resolution in direct contrast to the title of the piece.
Though the album as a whole leans toward the progressive and the experimental, "Espionage" reveals some catchy leads, and the closing track, “While She Sleeps”, is a beautiful smooth jazz ballad, complete with (instrumental) hook which would not be out of place on a pop album, and offers a calm and emotional ending to the chaos portrayed in the first eight tracks. Daniel Rosenboom has placed himself in a strange corner of jazz; not quite traditional, but by no means fully avant-garde. Fallen Angeles is not mainstream, but definitely accessible. It is highly recommended to jazz and rock fans alike.
 
Состав
Daniel Rosenboom: trumpet
Gavin Templeton: alto sax & flute
Brian Walsh: bass clarinet & baritone sax
Vinny Golia: tubax & alto flute
David Rosenboom: piano
Sam Minaie: bass
Caleb Dolister: drums
Any questions -> support@pro-jazz.com. По всем вопросам пишите -> support@pro-jazz.com
05:02
149
Нет комментариев. Ваш будет первым!