Вы используете незарегистрированную версию компонента "Вкладки"!

Поиск

(Avant-Garde Jazz, Free Improvisation) Agusti Fernandez & Ramon Lopez - Azul - 2012, FLAC (tracks+.cue), lossless

(Avant-Garde Jazz, Free Improvisation) Agusti Fernandez & Ramon Lopez - Azul - 2012, FLAC (tracks+.cue), lossless
Треклист:
•Agusti Fernandez & Ramon Lopez - Azul•
Жанр: Avant-Garde Jazz, Free Improvisation
Страна-производитель диска: Spain
Год издания: 2012
Издатель (лейбл): Universal Music
Номер по каталогу: 0602537195817
Аудиокодек: FLAC (*.flac)
Тип рипа: tracks+.cue
Битрейт аудио: lossless
Продолжительность: 00:51:47
Источник (релизер): jlgt
Наличие сканов в содержимом раздачи: да
Треклист:
01.Ramon en Paris {07:46}
02.Ambar {03:42}
03.Carambano {04:17}
04.Sa Ximbomba {05:31}
05.Joan Miro {03:33}
06.La Processo {05:18}
07.Polvo Enamorado {02:30}
08.Azul {04:20}
09.Lucero Del Alba {04:23}
10.We Will Meet Again {04:50}
11.Concilio De Suenos {02:56}
12.Una Leve Luz {02:36}
Personnel:
Agustí Fernández - piano
Ramón López - drums
 
Лог создания рипа
Exact Audio Copy V1.0 beta 3 from 29. August 2011
EAC extraction logfile from 1. November 2012, 15:43
Agusti Fernandez & Ramon Lopez / Azul
Used drive : PLEXTOR DVDR PX-L890SA Adapter: 2 ID: 1
Read mode : Secure
Utilize accurate stream : Yes
Defeat audio cache : Yes
Make use of C2 pointers : No
Read offset correction : 6
Overread into Lead-In and Lead-Out : No
Fill up missing offset samples with silence : Yes
Delete leading and trailing silent blocks : No
Null samples used in CRC calculations : Yes
Used interface : Native Win32 interface for Win NT & 2000
Gap handling : Appended to previous track
Used output format : User Defined Encoder
Selected bitrate : 256 kBit/s
Quality : High
Add ID3 tag : No
Command line compressor : C:\Program Files (x86)\Exact Audio Copy\FLAC\FLAC.EXE
Additional command line options : -8 -V -T "ARTIST=%artist%" -T "TITLE=%title%" -T "ALBUM=%albumtitle%" -T "DATE=%year%" -T "TRACKNUMBER=%tracknr%" -T "TOTALTRACKS=%numtracks%" -T "GENRE=%genre%" -T "ALBUMARTIST=%albumartist%" -T "ALBUM ARTIST=%albumartist%" -T "COMMENT=EAC Secure Mode, Test & Copy, AccurateRip, FLAC -8" %source%
TOC of the extracted CD
Track | Start | Length | Start sector | End sector
---------------------------------------------------------
1 | 0:00.00 | 7:46.30 | 0 | 34979
2 | 7:46.30 | 3:42.36 | 34980 | 51665
3 | 11:28.66 | 4:17.54 | 51666 | 70994
4 | 15:46.45 | 5:31.45 | 70995 | 95864
5 | 21:18.15 | 3:33.12 | 95865 | 111851
6 | 24:51.27 | 5:18.18 | 111852 | 135719
7 | 30:09.45 | 2:30.69 | 135720 | 147038
8 | 32:40.39 | 4:20.30 | 147039 | 166568
9 | 37:00.69 | 4:23.42 | 166569 | 186335
10 | 41:24.36 | 4:50.60 | 186336 | 208145
11 | 46:15.21 | 2:56.45 | 208146 | 221390
12 | 49:11.66 | 2:36.03 | 221391 | 233093
Track 1
Filename F:\Flac Rips\01 - Ramon en Paris.wav
Pre-gap length 0:00:02.00
Peak level 92.2 %
Extraction speed 4.2 X
Track quality 100.0 %
Test CRC D1DAAF22
Copy CRC D1DAAF22
Track not present in AccurateRip database
Copy OK
Track 2
Filename F:\Flac Rips\02 - Ambar.wav
Pre-gap length 0:00:01.00
Peak level 91.8 %
Extraction speed 4.4 X
Track quality 100.0 %
Test CRC B72CD63B
Copy CRC B72CD63B
Track not present in AccurateRip database
Copy OK
Track 3
Filename F:\Flac Rips\03 - Carambano.wav
Pre-gap length 0:00:01.00
Peak level 55.6 %
Extraction speed 4.8 X
Track quality 100.0 %
Test CRC 50E17D8E
Copy CRC 50E17D8E
Track not present in AccurateRip database
Copy OK
Track 4
Filename F:\Flac Rips\04 - Sa Ximbomba.wav
Pre-gap length 0:00:01.00
Peak level 92.2 %
Extraction speed 5.3 X
Track quality 100.0 %
Test CRC 7CC5F727
Copy CRC 7CC5F727
Track not present in AccurateRip database
Copy OK
Track 5
Filename F:\Flac Rips\05 - Joan Miro.wav
Pre-gap length 0:00:01.00
Peak level 91.7 %
Extraction speed 5.2 X
Track quality 100.0 %
Test CRC FB9E1993
Copy CRC FB9E1993
Track not present in AccurateRip database
Copy OK
Track 6
Filename F:\Flac Rips\06 - La Processo.wav
Pre-gap length 0:00:01.00
Peak level 92.2 %
Extraction speed 5.9 X
Track quality 100.0 %
Test CRC 96974941
Copy CRC 96974941
Track not present in AccurateRip database
Copy OK
Track 7
Filename F:\Flac Rips\07 - Polvo Enamorado.wav
Pre-gap length 0:00:01.00
Peak level 92.2 %
Extraction speed 5.5 X
Track quality 100.0 %
Test CRC C6572EBC
Copy CRC C6572EBC
Track not present in AccurateRip database
Copy OK
Track 8
Filename F:\Flac Rips\08 - Azul.wav
Pre-gap length 0:00:01.00
Peak level 92.2 %
Extraction speed 6.1 X
Track quality 100.0 %
Test CRC 25E3982A
Copy CRC 25E3982A
Track not present in AccurateRip database
Copy OK
Track 9
Filename F:\Flac Rips\09 - Lucero Del Alba.wav
Pre-gap length 0:00:01.00
Peak level 92.2 %
Extraction speed 6.4 X
Track quality 100.0 %
Test CRC 5567D811
Copy CRC 5567D811
Track not present in AccurateRip database
Copy OK
Track 10
Filename F:\Flac Rips\10 - We Will Meet Again.wav
Pre-gap length 0:00:01.00
Peak level 92.2 %
Extraction speed 5.6 X
Track quality 99.9 %
Test CRC A67F7966
Copy CRC A67F7966
Track not present in AccurateRip database
Copy OK
Track 11
Filename F:\Flac Rips\11 - Concilio De Suenos.wav
Pre-gap length 0:00:01.00
Peak level 68.7 %
Extraction speed 4.7 X
Track quality 99.9 %
Test CRC 63FC8D0F
Copy CRC 63FC8D0F
Track not present in AccurateRip database
Copy OK
Track 12
Filename F:\Flac Rips\12 - Una Leve Luz.wav
Pre-gap length 0:00:01.00
Peak level 92.2 %
Extraction speed 4.7 X
Track quality 99.9 %
Test CRC 35E36AE4
Copy CRC 35E36AE4
Track not present in AccurateRip database
Copy OK
None of the tracks are present in the AccurateRip database
No errors occurred
End of status report
==== Log checksum FE9FA53909DC7E73900327B2AE89F078E095132A3B609093536A6438ECBF118B ====
 
Содержание индексной карты (.CUE)
REM GENRE Jazz
REM DATE 2012
REM DISCID B70C230C
REM COMMENT "ExactAudioCopy v1.0b3"
PERFORMER "Agusti Fernandez & Ramon Lopez"
TITLE "Azul"
FILE "01 - Ramon en Paris.wav" WAVE
TRACK 01 AUDIO
TITLE "Ramon en Paris"
PERFORMER "Agusti Fernandez & Ramon Lopez"
FLAGS DCP
INDEX 01 00:00:00
TRACK 02 AUDIO
TITLE "Ambar"
PERFORMER "Agusti Fernandez & Ramon Lopez"
FLAGS DCP
INDEX 00 07:45:30
FILE "02 - Ambar.wav" WAVE
INDEX 01 00:00:00
TRACK 03 AUDIO
TITLE "Carambano"
PERFORMER "Agusti Fernandez & Ramon Lopez"
FLAGS DCP
INDEX 00 03:41:36
FILE "03 - Carambano.wav" WAVE
INDEX 01 00:00:00
TRACK 04 AUDIO
TITLE "Sa Ximbomba"
PERFORMER "Agusti Fernandez & Ramon Lopez"
FLAGS DCP
INDEX 00 04:16:54
FILE "04 - Sa Ximbomba.wav" WAVE
INDEX 01 00:00:00
TRACK 05 AUDIO
TITLE "Joan Miro"
PERFORMER "Agusti Fernandez & Ramon Lopez"
FLAGS DCP
INDEX 00 05:30:45
FILE "05 - Joan Miro.wav" WAVE
INDEX 01 00:00:00
TRACK 06 AUDIO
TITLE "La Processo"
PERFORMER "Agusti Fernandez & Ramon Lopez"
FLAGS DCP
INDEX 00 03:32:12
FILE "06 - La Processo.wav" WAVE
INDEX 01 00:00:00
TRACK 07 AUDIO
TITLE "Polvo Enamorado"
PERFORMER "Agusti Fernandez & Ramon Lopez"
FLAGS DCP
INDEX 00 05:17:18
FILE "07 - Polvo Enamorado.wav" WAVE
INDEX 01 00:00:00
TRACK 08 AUDIO
TITLE "Azul"
PERFORMER "Agusti Fernandez & Ramon Lopez"
FLAGS DCP
INDEX 00 02:29:69
FILE "08 - Azul.wav" WAVE
INDEX 01 00:00:00
TRACK 09 AUDIO
TITLE "Lucero Del Alba"
PERFORMER "Agusti Fernandez & Ramon Lopez"
FLAGS DCP
INDEX 00 04:19:30
FILE "09 - Lucero Del Alba.wav" WAVE
INDEX 01 00:00:00
TRACK 10 AUDIO
TITLE "We Will Meet Again"
PERFORMER "Agusti Fernandez & Ramon Lopez"
FLAGS DCP
INDEX 00 04:22:42
FILE "10 - We Will Meet Again.wav" WAVE
INDEX 01 00:00:00
TRACK 11 AUDIO
TITLE "Concilio De Suenos"
PERFORMER "Agusti Fernandez & Ramon Lopez"
FLAGS DCP
INDEX 00 04:49:60
FILE "11 - Concilio De Suenos.wav" WAVE
INDEX 01 00:00:00
TRACK 12 AUDIO
TITLE "Una Leve Luz"
PERFORMER "Agusti Fernandez & Ramon Lopez"
FLAGS DCP
INDEX 00 02:55:45
FILE "12 - Una Leve Luz.wav" WAVE
INDEX 01 00:00:00
Any questions -> support@pro-jazz.com. По всем вопросам пишите -> support@pro-jazz.com
05:02
160
Нет комментариев. Ваш будет первым!