Вы используете незарегистрированную версию компонента "Вкладки"!

Поиск

(Free Jazz, Avant-Garde Jazz) Rakalam Bob Moses - Father's Day B'hash - 2009, FLAC (tracks+.cue), lossless

(Free Jazz, Avant-Garde Jazz) Rakalam Bob Moses - Father's Day B'hash - 2009, FLAC (tracks+.cue), lossless
Треклист:
Rakalam Bob Moses / Father's Day B'hash
Жанр: Free Jazz, Avant-Garde Jazz
Страна-производитель диска: US
Год издания: 2009
Издатель (лейбл): Sunnyside Communications, Inc.
Номер по каталогу: SSC 1202
Страна: US
Аудиокодек: FLAC (*.flac)
Тип рипа: tracks+.cue
Битрейт аудио: lossless
Продолжительность: 71:54
Источник (релизер): свой фирменный диск
Наличие сканов в содержимом раздачи: нет
Треклист:
1. Exhalation#1 (Love)
2. Exhalation#3 (Fire Breath)
3. Pollack Springs
4. Father's Day Celebration
5. Drums for Shompa Lodro
6. Exhalation#2 (Peace)
7. Our Life
8. Duet for Violin and Squeaky Door
9. A Pure and Simple Being
 
Лог создания рипа
Exact Audio Copy V1.0 beta 3 from 29. August 2011
EAC extraction logfile from 14. January 2013, 21:08
Rakalam Bob Moses / Father's Day B'hash
Used drive : PIONEER DVD-RW DVR-115D Adapter: 0 ID: 0
Read mode : Secure
Utilize accurate stream : Yes
Defeat audio cache : Yes
Make use of C2 pointers : No
Read offset correction : 48
Overread into Lead-In and Lead-Out : No
Fill up missing offset samples with silence : Yes
Delete leading and trailing silent blocks : No
Null samples used in CRC calculations : Yes
Used interface : Installed external ASPI interface
Gap handling : Appended to previous track
Used output format : User Defined Encoder
Selected bitrate : 896 kBit/s
Quality : High
Add ID3 tag : No
Command line compressor : C:\Program Files\Exact Audio Copy\FLAC\FLAC.EXE
Additional command line options : -6 -V -T "ARTIST=%artist%" -T "TITLE=%title%" -T "ALBUM=%albumtitle%" -T "DATE=%year%" -T "TRACKNUMBER=%tracknr%" -T "GENRE=%genre%" -T "COMMENT=%comment%" -T "BAND=%albuminterpret%" -T "COMPOSER=%composer%" %haslyrics%--tag-from-file=LYRICS="%lyricsfile%"%haslyrics% -T "DISCNUMBER=%cdnumber%" -T "TOTALDISCS=%totalcds%" -T "TOTALTRACKS=%numtracks%" %hascover%--picture="%coverfile%"%hascover% %source% -o %dest%
TOC of the extracted CD
Track | Start | Length | Start sector | End sector
---------------------------------------------------------
1 | 0:00.00 | 12:22.60 | 0 | 55709
2 | 12:22.60 | 9:07.13 | 55710 | 96747
3 | 21:29.73 | 8:57.18 | 96748 | 137040
4 | 30:27.16 | 2:46.20 | 137041 | 149510
5 | 33:13.36 | 5:44.42 | 149511 | 175352
6 | 38:58.03 | 10:31.63 | 175353 | 222740
7 | 49:29.66 | 6:56.11 | 222741 | 253951
8 | 56:26.02 | 3:18.27 | 253952 | 268828
9 | 59:44.29 | 12:10.41 | 268829 | 323619
Track 1
Filename D:\zzz\01 - Exhalation#1 (Love).wav
Pre-gap length 0:00:02.00
Peak level 97.2 %
Extraction speed 5.3 X
Track quality 100.0 %
Test CRC 7442986E
Copy CRC 7442986E
Track not present in AccurateRip database
Copy OK
Track 2
Filename D:\zzz\02 - Exhalation#3 (Fire Breath).wav
Peak level 97.8 %
Extraction speed 6.2 X
Track quality 100.0 %
Test CRC 699F3102
Copy CRC 699F3102
Track not present in AccurateRip database
Copy OK
Track 3
Filename D:\zzz\03 - Pollack Springs.wav
Peak level 98.4 %
Extraction speed 6.9 X
Track quality 100.0 %
Test CRC D8E1593E
Copy CRC D8E1593E
Track not present in AccurateRip database
Copy OK
Track 4
Filename D:\zzz\04 - Father S Day Celebration.wav
Peak level 97.2 %
Extraction speed 6.4 X
Track quality 100.0 %
Test CRC F673C5DB
Copy CRC F673C5DB
Track not present in AccurateRip database
Copy OK
Track 5
Filename D:\zzz\05 - Drums For Shompa Lodro.wav
Peak level 97.2 %
Extraction speed 7.3 X
Track quality 100.0 %
Test CRC E9DAECA0
Copy CRC E9DAECA0
Track not present in AccurateRip database
Copy OK
Track 6
Filename D:\zzz\06 - Exhalation#2 (Peace).wav
Peak level 99.4 %
Extraction speed 8.1 X
Track quality 100.0 %
Test CRC 21B34BA6
Copy CRC 21B34BA6
Track not present in AccurateRip database
Copy OK
Track 7
Filename D:\zzz\07 - Our Life.wav
Peak level 97.2 %
Extraction speed 8.3 X
Track quality 100.0 %
Test CRC 139AC2D3
Copy CRC 139AC2D3
Track not present in AccurateRip database
Copy OK
Track 8
Filename D:\zzz\08 - Duet For Violin And Squeaky Door.wav
Peak level 99.4 %
Extraction speed 7.9 X
Track quality 100.0 %
Test CRC CF2E4897
Copy CRC CF2E4897
Track not present in AccurateRip database
Copy OK
Track 9
Filename D:\zzz\09 - A Pure And Simple Being.wav
Pre-gap length 0:00:00.48
Peak level 97.2 %
Extraction speed 9.3 X
Track quality 100.0 %
Test CRC CD812BC8
Copy CRC CD812BC8
Track not present in AccurateRip database
Copy OK
None of the tracks are present in the AccurateRip database
No errors occurred
End of status report
==== Log checksum FAE1B79A1582DD24AD694E5B2F0EAE51D6A6A9101B49FC0816E6B3DBFEB25DA2 ====
 
Содержание индексной карты (.CUE)
REM GENRE Avantgarde
REM DATE 2009
REM DISCID 9210DA09
REM COMMENT "ExactAudioCopy v1.0b3"
PERFORMER "Rakalam Bob Moses"
TITLE "Father's Day B'hash"
FILE "01 - Exhalation#1 (Love).wav" WAVE
TRACK 01 AUDIO
TITLE "Exhalation#1 (Love)"
PERFORMER "Rakalam Bob Moses"
INDEX 01 00:00:00
FILE "02 - Exhalation#3 (Fire Breath).wav" WAVE
TRACK 02 AUDIO
TITLE "Exhalation#3 (Fire Breath)"
PERFORMER "Rakalam Bob Moses"
INDEX 01 00:00:00
FILE "03 - Pollack Springs.wav" WAVE
TRACK 03 AUDIO
TITLE "Pollack Springs"
PERFORMER "Rakalam Bob Moses"
INDEX 01 00:00:00
FILE "04 - Father S Day Celebration.wav" WAVE
TRACK 04 AUDIO
TITLE "Father S Day Celebration"
PERFORMER "Rakalam Bob Moses"
INDEX 01 00:00:00
FILE "05 - Drums For Shompa Lodro.wav" WAVE
TRACK 05 AUDIO
TITLE "Drums For Shompa Lodro"
PERFORMER "Rakalam Bob Moses"
INDEX 01 00:00:00
FILE "06 - Exhalation#2 (Peace).wav" WAVE
TRACK 06 AUDIO
TITLE "Exhalation#2 (Peace)"
PERFORMER "Rakalam Bob Moses"
INDEX 01 00:00:00
FILE "07 - Our Life.wav" WAVE
TRACK 07 AUDIO
TITLE "Our Life"
PERFORMER "Rakalam Bob Moses"
INDEX 01 00:00:00
FILE "08 - Duet For Violin And Squeaky Door.wav" WAVE
TRACK 08 AUDIO
TITLE "Duet For Violin And Squeaky Door"
PERFORMER "Rakalam Bob Moses"
INDEX 01 00:00:00
TRACK 09 AUDIO
TITLE "A Pure And Simple Being"
PERFORMER "Rakalam Bob Moses"
INDEX 00 03:17:54
FILE "09 - A Pure And Simple Being.wav" WAVE
INDEX 01 00:00:00
 
Лог проверки качества
d:\>d:\aucdtect -d/-m0 d:\zzz\*.wav
auCDtect: CD records authenticity detector, version 0.8.2
Copyright (c) 2004 Oleg Berngardt. All rights reserved.
Copyright (c) 2004 Alexander Djourik. All rights reserved.
------------------------------------------------------------
Processing file: [01. Exhalation#1 (Love).wav]
------------------------------------------------------------
This track looks like CDDA with probability 99%
------------------------------------------------------------
Processing file: [02. Exhalation#3 (Fire Breath).wav]
------------------------------------------------------------
This track looks like CDDA with probability 100%
------------------------------------------------------------
Processing file: [03. Pollack Springs.wav]
------------------------------------------------------------
This track looks like CDDA with probability 100%
------------------------------------------------------------
Processing file: [04. Father S Day Celebration.wav]
------------------------------------------------------------
This track looks like CDDA with probability 99%
------------------------------------------------------------
Processing file: [05. Drums For Shompa Lodro.wav]
------------------------------------------------------------
This track looks like CDDA with probability 100%
------------------------------------------------------------
Processing file: [06. Exhalation#2 (Peace).wav]
------------------------------------------------------------
This track looks like CDDA with probability 100%
------------------------------------------------------------
Processing file: [07. Our Life.wav]
------------------------------------------------------------
This track looks like CDDA with probability 100%
------------------------------------------------------------
Processing file: [08. Duet For Violin And Squeaky Door.wav]
------------------------------------------------------------
This track looks like CDDA with probability 100%
------------------------------------------------------------
Processing file: [09. A Pure And Simple Being.wav]
------------------------------------------------------------
This track looks like CDDA with probability 100%
------------------------------------------------------------
Final Conclusion:
------------------------------------------------------------
These tracks looks like CDDA with probability 100%
Доп. информация:
 
AMG Review
Rakalam Bob Moses is a drummer whose reputation as a top-drawer musician in the '70s has given way to his expertise as an instructor turning out excellent protégés at the New England Conservatory in Boston ever since. His fifth effort as a leader in the decade of the 2000s, he's recruited student performers and recording engineers, adding the veteran saxophonist and bass clarinetist Stan Strickland, and is inspired by his dad, who passed away shortly after these recording were made on Father's Day of 2006. The music is a dense Wall of Sound mostly devoid of strict time, free as in John Coltrane's final phase music, and charged with youthful enthusiasm tempered with the wisdom of the ages. Five saxophonists provide the bricks and mortar, with violin and trumpet also included, to power the precise and urgent, Elvin Jones like drumming of Moses. Limited regard for defined melodies allows the music to breathe organically, best exemplified by three pieces titled "Exhalation" subtitled "Love," "Peace," and "Fire Breath." From meditational moods building in intensity to serene setting up a free bop section, to outspoken clarion horns filling every space, Moses knows where the heart and pulse of this music lies, and delivers it full-force. There are direct references to music originally made by Coltrane or Pharoah Sanders as on the pretty ballad "Father's Day Celebration," the Art Ensemble of Chicago, Sun Ra, Ornette Coleman, Don Cherry, and Cecil Taylor. "Our Life" adopts the brittle and free harmelodic approach of Coleman going to a bash, while mbira and vocals, ritualistic and spooky, suggest the multi-kulti style Cherry embraced in his latter period on "A Pure & Simple Being," with the large horn ensemble speaking and chatting in basic tones. Moses takes to the piano in a frantic scramble during "Pollack Springs," rattling overtones keyboard strings while urging the shouting horns into madness. Though individualism is encouraged, the whole of the group is emphasized in the main, with Strickland's bass clarinet leading out introductions, while his tenor and soprano sax play semi-solos supported by the thick sonic landscape. Violinist Andrei Matorin seems to sound as a voice unintegrated while also adding a different spice to the mix, and is the lead voice on the foggy "Duet for Violin & Squeaky Door." Moses himself is on track and in sync all the way, making inroads for his students to follow, and blazing away with the fiery and literate trap drum work that he has exemplified as assimilating bird's wings in flight. This will appeal to listeners of specific taste who enjoy creative, layered, impenetrable music, requiring deep listening and rapt attention. The gifts received upon your paying close attention reveal a unique music experience only Moses can envision and bring.
 
Состав
Ommudra Thomas Arabia: tenor saxophone
Petr Cancura: tenor and soprano saxophones, wood flute
Andrei Matorin: violin
Justin Purtill: bass
Nicole Rampersaud: trumpet and flugelhorn
Luis Rosa: alto saxophone
Stan Strickland: tenor and soprano saxophones, flute, bass clarinet, and vocals
Nick Videen: alto saxophone
Rakalam Bob Moses: drums, piano, log drum, kalimba, water sounds, and squeaky door.
Any questions -> support@pro-jazz.com. По всем вопросам пишите -> support@pro-jazz.com
08:00
256
Нет комментариев. Ваш будет первым!