Вы используете незарегистрированную версию компонента "Вкладки"!

Поиск

(British Jazz, Progressive Jazz, Modern Composition) Mike Westbrook Orchestra - The Cortege (2CD) - 1982, FLAC (tracks+.cue), lossless

(British Jazz, Progressive Jazz, Modern Composition) Mike Westbrook Orchestra - The Cortege (2CD) - 1982, FLAC (tracks+.cue), lossless
Треклист:
Mike Westbrook Orchestra / The Cortege (2CD)
Жанр: British Jazz, Progressive Jazz, Modern Composition
Страна-производитель диска: Germany
Год издания: 2011
Издатель (лейбл): Enja Records
Номер по каталогу: ENJ-9587-2
Страна: UK
Аудиокодек: FLAC (*.flac)
Тип рипа: tracks+.cue
Битрейт аудио: lossless
Продолжительность: 73:13 + 63:51
Источник (релизер): свой фирменный диск
Наличие сканов в содержимом раздачи: нет
Треклист:
 
CD1
1-1 It Starts Here
1-2 Democratie
1-3 Berlin 16.2.79
1-4 Erme Estuary
1-5 Knivshult/Ash Wednesday
1-6 Ruote Che Girano
1-7 Piano
1-8 Lenador
1-9 July '79
 
CD2
2-1 Enface
2-2 Cordoba
2-3 Santarcangelo
2-4 Kyrie
2-5 A Hearth Burns
2-6 Graffitti
 
Лог создания рипа

 
CD1
Exact Audio Copy V1.0 beta 3 from 29. August 2011
EAC extraction logfile from 15. January 2013, 18:03
Mike Westbrook Orchestra / The Cortege (CD 1)
Used drive : PIONEER DVD-RW DVR-115D Adapter: 0 ID: 0
Read mode : Secure
Utilize accurate stream : Yes
Defeat audio cache : Yes
Make use of C2 pointers : No
Read offset correction : 48
Overread into Lead-In and Lead-Out : No
Fill up missing offset samples with silence : Yes
Delete leading and trailing silent blocks : No
Null samples used in CRC calculations : Yes
Used interface : Installed external ASPI interface
Gap handling : Appended to previous track
Used output format : User Defined Encoder
Selected bitrate : 896 kBit/s
Quality : High
Add ID3 tag : No
Command line compressor : C:\Program Files\Exact Audio Copy\FLAC\FLAC.EXE
Additional command line options : -6 -V -T "ARTIST=%artist%" -T "TITLE=%title%" -T "ALBUM=%albumtitle%" -T "DATE=%year%" -T "TRACKNUMBER=%tracknr%" -T "GENRE=%genre%" -T "COMMENT=%comment%" -T "BAND=%albuminterpret%" -T "COMPOSER=%composer%" %haslyrics%--tag-from-file=LYRICS="%lyricsfile%"%haslyrics% -T "DISCNUMBER=%cdnumber%" -T "TOTALDISCS=%totalcds%" -T "TOTALTRACKS=%numtracks%" %hascover%--picture="%coverfile%"%hascover% %source% -o %dest%
TOC of the extracted CD
Track | Start | Length | Start sector | End sector
---------------------------------------------------------
1 | 0:00.12 | 5:18.31 | 12 | 23892
2 | 5:18.43 | 7:55.74 | 23893 | 59591
3 | 13:14.42 | 9:25.49 | 59592 | 102015
4 | 22:40.16 | 11:13.52 | 102016 | 152542
5 | 33:53.68 | 4:56.00 | 152543 | 174742
6 | 38:49.68 | 6:50.24 | 174743 | 205516
7 | 45:40.17 | 3:06.03 | 205517 | 219469
8 | 48:46.20 | 11:33.44 | 219470 | 271488
9 | 60:19.64 | 12:53.53 | 271489 | 329516
Track 1
Filename D:\zzz\01 - It Starts Here.wav
Pre-gap length 0:00:02.12
Peak level 99.8 %
Extraction speed 4.5 X
Track quality 99.9 %
Test CRC 3D3797F7
Copy CRC 3D3797F7
Track not present in AccurateRip database
Copy OK
Track 2
Filename D:\zzz\02 - Democratie.wav
Peak level 98.8 %
Extraction speed 5.8 X
Track quality 100.0 %
Test CRC 433C2748
Copy CRC 433C2748
Track not present in AccurateRip database
Copy OK
Track 3
Filename D:\zzz\03 - Berlin 16.2.79.wav
Peak level 98.8 %
Extraction speed 6.7 X
Track quality 100.0 %
Test CRC DA2C37F8
Copy CRC DA2C37F8
Track not present in AccurateRip database
Copy OK
Track 4
Filename D:\zzz\04 - Erme Estuary.wav
Peak level 98.8 %
Extraction speed 7.5 X
Track quality 100.0 %
Test CRC 9E515A9C
Copy CRC 9E515A9C
Track not present in AccurateRip database
Copy OK
Track 5
Filename D:\zzz\05 - Knivshult , Ash Wednesday.wav
Peak level 98.8 %
Extraction speed 7.5 X
Track quality 100.0 %
Test CRC 33C06834
Copy CRC 33C06834
Track not present in AccurateRip database
Copy OK
Track 6
Filename D:\zzz\06 - Ruote Che Girano.wav
Peak level 98.8 %
Extraction speed 7.6 X
Track quality 99.9 %
Test CRC 7B957FCC
Copy CRC 7B957FCC
Track not present in AccurateRip database
Copy OK
Track 7
Filename D:\zzz\07 - Piano.wav
Peak level 92.6 %
Extraction speed 7.7 X
Track quality 100.0 %
Test CRC 260E8516
Copy CRC 260E8516
Track not present in AccurateRip database
Copy OK
Track 8
Filename D:\zzz\08 - Lenador.wav
Peak level 98.8 %
Extraction speed 9.1 X
Track quality 100.0 %
Test CRC 02BA1BA3
Copy CRC 02BA1BA3
Track not present in AccurateRip database
Copy OK
Track 9
Filename D:\zzz\09 - July '79.wav
Pre-gap length 0:00:03.29
Peak level 98.8 %
Extraction speed 9.8 X
Track quality 100.0 %
Test CRC 6B795FAC
Copy CRC 6B795FAC
Track not present in AccurateRip database
Copy OK
None of the tracks are present in the AccurateRip database
No errors occurred
End of status report
==== Log checksum 7EE1AEC6A019C443F80EAB5D4B78CCB65FA40C6D04A1F70F6FF56FA5EE4AD752 ====
 
CD2
Exact Audio Copy V1.0 beta 3 from 29. August 2011
EAC extraction logfile from 15. January 2013, 18:32
Mike Westbrook Orchestra / The Cortege (CD 2)
Used drive : PIONEER DVD-RW DVR-115D Adapter: 0 ID: 0
Read mode : Secure
Utilize accurate stream : Yes
Defeat audio cache : Yes
Make use of C2 pointers : No
Read offset correction : 48
Overread into Lead-In and Lead-Out : No
Fill up missing offset samples with silence : Yes
Delete leading and trailing silent blocks : No
Null samples used in CRC calculations : Yes
Used interface : Installed external ASPI interface
Gap handling : Appended to previous track
Used output format : User Defined Encoder
Selected bitrate : 896 kBit/s
Quality : High
Add ID3 tag : No
Command line compressor : C:\Program Files\Exact Audio Copy\FLAC\FLAC.EXE
Additional command line options : -6 -V -T "ARTIST=%artist%" -T "TITLE=%title%" -T "ALBUM=%albumtitle%" -T "DATE=%year%" -T "TRACKNUMBER=%tracknr%" -T "GENRE=%genre%" -T "COMMENT=%comment%" -T "BAND=%albuminterpret%" -T "COMPOSER=%composer%" %haslyrics%--tag-from-file=LYRICS="%lyricsfile%"%haslyrics% -T "DISCNUMBER=%cdnumber%" -T "TOTALDISCS=%totalcds%" -T "TOTALTRACKS=%numtracks%" %hascover%--picture="%coverfile%"%hascover% %source% -o %dest%
TOC of the extracted CD
Track | Start | Length | Start sector | End sector
---------------------------------------------------------
1 | 0:00.12 | 14:05.33 | 12 | 63419
2 | 14:05.45 | 8:11.38 | 63420 | 100282
3 | 22:17.08 | 16:55.26 | 100283 | 176433
4 | 39:12.34 | 5:22.70 | 176434 | 200653
5 | 44:35.29 | 11:10.45 | 200654 | 250948
6 | 55:45.74 | 8:05.51 | 250949 | 287374
Track 1
Filename D:\zzz\01 - Enface.wav
Pre-gap length 0:00:02.12
Peak level 98.8 %
Extraction speed 5.5 X
Track quality 100.0 %
Test CRC 72F73DE9
Copy CRC 72F73DE9
Track not present in AccurateRip database
Copy OK
Track 2
Filename D:\zzz\02 - Cordoba.wav
Peak level 98.8 %
Extraction speed 6.5 X
Track quality 100.0 %
Test CRC 76B3DBE9
Copy CRC 76B3DBE9
Track not present in AccurateRip database
Copy OK
Track 3
Filename D:\zzz\03 - Santarcangelo.wav
Peak level 98.8 %
Extraction speed 7.7 X
Track quality 100.0 %
Test CRC 75ACE223
Copy CRC 75ACE223
Track not present in AccurateRip database
Copy OK
Track 4
Filename D:\zzz\04 - Kyrie.wav
Peak level 98.8 %
Extraction speed 7.8 X
Track quality 100.0 %
Test CRC 20B1D520
Copy CRC 20B1D520
Track not present in AccurateRip database
Copy OK
Track 5
Filename D:\zzz\05 - A Hearth Burns.wav
Peak level 98.8 %
Extraction speed 8.8 X
Track quality 100.0 %
Test CRC CDE60B76
Copy CRC CDE60B76
Track not present in AccurateRip database
Copy OK
Track 6
Filename D:\zzz\06 - Graffitti.wav
Peak level 98.8 %
Extraction speed 8.5 X
Track quality 99.9 %
Test CRC A54723A9
Copy CRC A54723A9
Track not present in AccurateRip database
Copy OK
None of the tracks are present in the AccurateRip database
No errors occurred
End of status report
==== Log checksum B3BB7B897AA475F7DB59D81577100D166CF1BF20338B53E321E01F90EC4BFC41 ====
 
Содержание индексной карты (.CUE)

 
CD1
REM GENRE Jazz
REM DATE 1982
REM DISCID 6C112909
REM COMMENT "ExactAudioCopy v1.0b3"
PERFORMER "Mike Westbrook Orchestra"
TITLE "The Cortege (CD 1)"
FILE "01 - It Starts Here.wav" WAVE
TRACK 01 AUDIO
TITLE "It Starts Here"
PERFORMER "Mike Westbrook Orchestra"
PREGAP 00:00:12
INDEX 01 00:00:00
FILE "02 - Democratie.wav" WAVE
TRACK 02 AUDIO
TITLE "Democratie"
PERFORMER "Mike Westbrook Orchestra"
INDEX 01 00:00:00
FILE "03 - Berlin 16.2.79.wav" WAVE
TRACK 03 AUDIO
TITLE "Berlin 16.2.79"
PERFORMER "Mike Westbrook Orchestra"
INDEX 01 00:00:00
FILE "04 - Erme Estuary.wav" WAVE
TRACK 04 AUDIO
TITLE "Erme Estuary"
PERFORMER "Mike Westbrook Orchestra"
INDEX 01 00:00:00
FILE "05 - Knivshult , Ash Wednesday.wav" WAVE
TRACK 05 AUDIO
TITLE "Knivshult / Ash Wednesday"
PERFORMER "Mike Westbrook Orchestra"
INDEX 01 00:00:00
FILE "06 - Ruote Che Girano.wav" WAVE
TRACK 06 AUDIO
TITLE "Ruote Che Girano"
PERFORMER "Mike Westbrook Orchestra"
INDEX 01 00:00:00
FILE "07 - Piano.wav" WAVE
TRACK 07 AUDIO
TITLE "Piano"
PERFORMER "Mike Westbrook Orchestra"
INDEX 01 00:00:00
FILE "08 - Lenador.wav" WAVE
TRACK 08 AUDIO
TITLE "Lenador"
PERFORMER "Mike Westbrook Orchestra"
INDEX 01 00:00:00
TRACK 09 AUDIO
TITLE "July '79"
PERFORMER "Mike Westbrook Orchestra"
INDEX 00 11:30:15
FILE "09 - July '79.wav" WAVE
INDEX 01 00:00:00
 
CD2
REM GENRE Jazz
REM DATE 1982
REM DISCID 5A0EF706
REM COMMENT "ExactAudioCopy v1.0b3"
PERFORMER "Mike Westbrook Orchestra"
TITLE "The Cortege (CD 2)"
FILE "01 - Enface.wav" WAVE
TRACK 01 AUDIO
TITLE "Enface"
PERFORMER "Mike Westbrook Orchestra"
PREGAP 00:00:12
INDEX 01 00:00:00
FILE "02 - Cordoba.wav" WAVE
TRACK 02 AUDIO
TITLE "Cordoba"
PERFORMER "Mike Westbrook Orchestra"
INDEX 01 00:00:00
FILE "03 - Santarcangelo.wav" WAVE
TRACK 03 AUDIO
TITLE "Santarcangelo"
PERFORMER "Mike Westbrook Orchestra"
INDEX 01 00:00:00
FILE "04 - Kyrie.wav" WAVE
TRACK 04 AUDIO
TITLE "Kyrie"
PERFORMER "Mike Westbrook Orchestra"
INDEX 01 00:00:00
FILE "05 - A Hearth Burns.wav" WAVE
TRACK 05 AUDIO
TITLE "A Hearth Burns"
PERFORMER "Mike Westbrook Orchestra"
INDEX 01 00:00:00
FILE "06 - Graffitti.wav" WAVE
TRACK 06 AUDIO
TITLE "Graffitti"
PERFORMER "Mike Westbrook Orchestra"
INDEX 01 00:00:00
 
Лог проверки качества
d:\>d:\aucdtect -d/-m0 d:\zzz\*.wav
auCDtect: CD records authenticity detector, version 0.8.2
Copyright (c) 2004 Oleg Berngardt. All rights reserved.
Copyright (c) 2004 Alexander Djourik. All rights reserved.
------------------------------------------------------------
Processing file: [01. Enface.wav]
------------------------------------------------------------
This track looks like CDDA with probability 100%
------------------------------------------------------------
Processing file: [01. It Starts Here.wav]
------------------------------------------------------------
This track looks like CDDA with probability 100%
------------------------------------------------------------
Processing file: [02. Cordoba.wav]
------------------------------------------------------------
This track looks like CDDA with probability 100%
------------------------------------------------------------
Processing file: [02. Democratie.wav]
------------------------------------------------------------
This track looks like CDDA with probability 100%
------------------------------------------------------------
Processing file: [03. Berlin 16.2.79.wav]
------------------------------------------------------------
This track looks like CDDA with probability 100%
------------------------------------------------------------
Processing file: [03. Santarcangelo.wav]
------------------------------------------------------------
This track looks like CDDA with probability 100%
------------------------------------------------------------
Processing file: [04. Erme Estuary.wav]
------------------------------------------------------------
This track looks like CDDA with probability 100%
------------------------------------------------------------
Processing file: [04. Kyrie.wav]
------------------------------------------------------------
This track looks like CDDA with probability 100%
------------------------------------------------------------
Processing file: [05. A Hearth Burns.wav]
------------------------------------------------------------
This track looks like CDDA with probability 100%
------------------------------------------------------------
Processing file: [05. Knivshult - Ash Wednesday.wav]
------------------------------------------------------------
This track looks like CDDA with probability 100%
------------------------------------------------------------
Processing file: [06. Graffitti.wav]
------------------------------------------------------------
This track looks like CDDA with probability 100%
------------------------------------------------------------
Processing file: [06. Ruote Che Girano.wav]
------------------------------------------------------------
This track looks like CDDA with probability 100%
------------------------------------------------------------
Processing file: [07. Piano.wav]
------------------------------------------------------------
This track looks like CDDA with probability 100%
------------------------------------------------------------
Processing file: [08. Lenador.wav]
------------------------------------------------------------
This track looks like CDDA with probability 100%
------------------------------------------------------------
Processing file: [09. July '79.wav]
------------------------------------------------------------
This track looks like CDDA with probability 100%
------------------------------------------------------------
Final Conclusion:
------------------------------------------------------------
These tracks looks like CDDA with probability 100%
 
Состав
Bass – Steve Cook
Bassoon, Oboe, Saxophone [Sopranino Saxophone] – Lindsay Cooper
Cello – Georgie Born
Composed By, Arranged By – Mike Westbrook
Drums, Percussion – Dave Barry
Guitar – Brian Godding
Horns [Tenor Horn], Flute [Bamboo Flute], Piccolo Flute, Vocals – Kate Westbrook
Lyrics By – Arthur Rimbaud, Federico Garcia Lorca, Guiseppe Gioachino Belli, Hermann Hesse, John Clare, Pentti Saarikoski, William Blake
Piano – Mike Westbrook
Saxophone [Alto, Soprano & Tenor Saxophones] – Chris Hunter
Saxophone [Alto, Soprano & Tenor Saxophones], Clarinet, Flute [Alto Flute] – Phil Todd
Saxophone [Baritone, Alto & Soprano Saxophones], Clarinet [Alto Clarinet], Flute – Chris Biscoe
Trombone, Trombone [Bass Trombone] – Malcolm Griffiths
Trumpet, Flugelhorn – Dave Plews, Dick Pearce, Guy Barker
Trumpet, Vocals – Phil Minton
Tuba – Alan Sinclair
Tuba [2nd Tuba] – Dave Powell (tracks: 1-9 to 2-6)
Any questions -> support@pro-jazz.com. По всем вопросам пишите -> support@pro-jazz.com
08:01
176
Нет комментариев. Ваш будет первым!