Вы используете незарегистрированную версию компонента "Вкладки"!

Поиск

(Free Jazz, Avant-Garde Jazz) Paolo Damiani Quintet - Poor Memory (Live In Attina) - 1987, APE (tracks+.cue), lossless

Треклист:
Paolo Damiani Quintet / Poor Memory (Live In Attina)
Жанр: Free Jazz, Avant-Garde Jazz
Страна-производитель диска: Italy
Год издания диска: 1987
Издатель (лейбл): Splasc(H)
Номер по каталогу: CD HP 07
Страна: Italy
Аудиокодек: APE (*.ape)
Тип рипа: tracks+.cue
Битрейт аудио: lossless
Продолжительность: 46:30
Источник (релизер): ed2k
Наличие сканов в содержимом раздачи: да
Треклист:
1. ... E Sbadigli
2. 26th Street, Between...
3. Canzone Di Spaziozero
4. Allegro?
5. Offerte Speciali
 
Лог создания рипа
EAC extraction logfile from 31. December 2007, 17:44 for CD
Paolo Damiani Quintet / Poor Memory- Live In Atina'87 Splasc(h)
Used drive : HL-DT-STDVDRAM GSA-H10A Adapter: 1 ID: 0
Read mode : Secure with NO C2, accurate stream, disable cache
Read offset correction : 667
Overread into Lead-In and Lead-Out : No
Used output format : C:\Archivos de programa\Exact Audio Copy\MAC.exe (Monkey's Audio Lossless Encoder)
Extra High Lossless Compression
Additional command line options : --alt-preset extreme
Use compression offset : 667
Other options :
Fill up missing offset samples with silence : Yes
Delete leading and trailing silent blocks : No
Native Win32 interface for Win NT & 2000
Track 1
Filename G:\comp emule aсadir\Paolo Damiani Quintet - Poor Memory- Live In Atina'87 Splasc(h)\01 - ...E Sbadigli.wav
Peak level 76.9 %
Track quality 100.0 %
Copy CRC 8ADE63FF
Copy OK
Track 2
Filename G:\comp emule aсadir\Paolo Damiani Quintet - Poor Memory- Live In Atina'87 Splasc(h)\02 - 26th Street, Between....wav
Peak level 68.4 %
Track quality 100.0 %
Copy CRC 3F118A7B
Copy OK
Track 3
Filename G:\comp emule aсadir\Paolo Damiani Quintet - Poor Memory- Live In Atina'87 Splasc(h)\03 - Canzone Di Spaziozero.wav
Peak level 51.4 %
Track quality 100.0 %
Copy CRC 1CA5D977
Copy OK
Track 4
Filename G:\comp emule aсadir\Paolo Damiani Quintet - Poor Memory- Live In Atina'87 Splasc(h)\04 - Allegro-.wav
Peak level 49.6 %
Track quality 100.0 %
Copy CRC 7B3DF532
Copy OK
Track 5
Filename G:\comp emule aсadir\Paolo Damiani Quintet - Poor Memory- Live In Atina'87 Splasc(h)\05 - Offerte Speciali.wav
Peak level 90.4 %
Track quality 100.0 %
Copy CRC 61C50DDF
Copy OK
No errors occured
End of status report
 
Содержание индексной карты (.CUE)
PERFORMER "Paolo Damiani Quintet"
TITLE "Poor Memory- Live In Atina'87 Splasc(h)"
FILE "01 - ...E Sbadigli.wav" WAVE
TRACK 01 AUDIO
TITLE "...E Sbadigli"
PERFORMER "Paolo Damiani Quintet"
FLAGS PRE
INDEX 01 00:00:00
FILE "02 - 26th Street, Between....wav" WAVE
TRACK 02 AUDIO
TITLE "26th Street, Between..."
PERFORMER "Paolo Damiani Quintet"
FLAGS PRE
INDEX 01 00:00:00
FILE "03 - Canzone Di Spaziozero.wav" WAVE
TRACK 03 AUDIO
TITLE "Canzone Di Spaziozero"
PERFORMER "Paolo Damiani Quintet"
FLAGS PRE
INDEX 01 00:00:00
FILE "04 - Allegro-.wav" WAVE
TRACK 04 AUDIO
TITLE "Allegro-"
PERFORMER "Paolo Damiani Quintet"
FLAGS PRE
INDEX 01 00:00:00
FILE "05 - Offerte Speciali.wav" WAVE
TRACK 05 AUDIO
TITLE "Offerte Speciali"
PERFORMER "Paolo Damiani Quintet"
FLAGS PRE
INDEX 01 00:00:00
 
Лог проверки качества
d:\>d:\aucdtect -d/-m0 d:\zzz\*.wav
auCDtect: CD records authenticity detector, version 0.8.2
Copyright (c) 2004 Oleg Berngardt. All rights reserved.
Copyright (c) 2004 Alexander Djourik. All rights reserved.
------------------------------------------------------------
Processing file: [26th Street, Between....wav]
------------------------------------------------------------
This track looks like CDDA with probability 100%
------------------------------------------------------------
Processing file: [Allegro-.wav]
------------------------------------------------------------
This track looks like CDDA with probability 100%
------------------------------------------------------------
Processing file: [Canzone Di Spaziozero.wav]
------------------------------------------------------------
This track looks like CDDA with probability 100%
------------------------------------------------------------
Processing file: [E Sbadigli.wav]
------------------------------------------------------------
This track looks like CDDA with probability 100%
------------------------------------------------------------
Processing file: [Offerte Speciali.wav]
------------------------------------------------------------
This track looks like CDDA with probability 100%
------------------------------------------------------------
Final Conclusion:
------------------------------------------------------------
These tracks looks like CDDA with probability 100%
 
Состав
Paolo Fresu: trumpet, flugelhorn
Gianluigi Trovesi: alto & soprano sax, bass clarinet
Claude Barthelemy: guitar
Paolo Damiani: bass & cello
Aldo Romano: drums
Any questions -> support@pro-jazz.com. По всем вопросам пишите -> support@pro-jazz.com
23:09
131
Нет комментариев. Ваш будет первым!