Вы используете незарегистрированную версию компонента "Вкладки"!

Поиск

(Avant-garde Jazz) Sylvain Kassap - Foehn - 2010, FLAC (tracks+.cue), lossless

(Avant-garde Jazz) Sylvain Kassap - Foehn - 2010, FLAC (tracks+.cue), lossless
Треклист:
Sylvain Kassap / Foehn
Жанр: Avant-garde Jazz
Страна-производитель диска: France
Год издания диска: 2010
Издатель (лейбл): Fremeaux & Associes
Номер по каталогу: FA 524
Аудиокодек: FLAC (*.flac)
Тип рипа: tracks+.cue
Битрейт аудио: lossless
Продолжительность: 42:02
Источник (релизер): вот.сиди
Наличие сканов в содержимом раздачи: да
Треклист:
1 Adele (For Lady D.) 3:50
2 Zaitut 4:36
3 Plancoet 2:18
4 Llamarada 6:45
5 Taragot 5:59
6 Sadness, But... 4:07
7 Le Retour Du Touron 4:25
8 Claxophones & Sarinettes 4:30
9 The Last Drop 5:20
 
Лог создания рипа
Exact Audio Copy V1.0 beta 3 from 29. August 2011
EAC extraction logfile from 17. March 2012, 9:59
Sylvain Kassap / Foehn
Used drive : PLEXTOR DVDR PX-860A Adapter: 0 ID: 0
Read mode : Secure
Utilize accurate stream : Yes
Defeat audio cache : Yes
Make use of C2 pointers : No
Read offset correction : 96
Overread into Lead-In and Lead-Out : No
Fill up missing offset samples with silence : Yes
Delete leading and trailing silent blocks : No
Null samples used in CRC calculations : Yes
Used interface : Native Win32 interface for Win NT & 2000
Gap handling : Appended to previous track
Used output format : User Defined Encoder
Selected bitrate : 1024 kBit/s
Quality : High
Add ID3 tag : No
Command line compressor : C:\Program Files\Exact Audio Copy 3\Flac\flac.exe
Additional command line options : -8 -V -T "ARTIST=%artist%" -T "TITLE=%title%" -T "ALBUM=%albumtitle%" -T "DATE=%year%" -T "TRACKNUMBER=%tracknr%" -T "GENRE=%genre%" -T "PERFORMER=%albuminterpret%" -T "COMPOSER=%composer%" %haslyrics%--tag-from-file=LYRICS="%lyricsfile%"%haslyrics% -T "ALBUMARTIST=%albumartist%" -T "DISCNUMBER=%cdnumber%" -T "TOTALDISCS=%totalcds%" -T "TOTALTRACKS=%numtracks%" -T "COMMENT=%comment%" %source% -o %dest%
TOC of the extracted CD
Track | Start | Length | Start sector | End sector
---------------------------------------------------------
1 | 0:00.33 | 3:51.57 | 33 | 17414
2 | 3:52.15 | 4:36.73 | 17415 | 38187
3 | 8:29.13 | 2:19.45 | 38188 | 48657
4 | 10:48.58 | 6:45.45 | 48658 | 79077
5 | 17:34.28 | 6:00.47 | 79078 | 106124
6 | 23:35.00 | 4:08.23 | 106125 | 124747
7 | 27:43.23 | 4:27.32 | 124748 | 144804
8 | 32:10.55 | 4:31.60 | 144805 | 165189
9 | 36:42.40 | 5:20.18 | 165190 | 189207
Track 1
Filename I:\DL\Sylvain Kassap - Foehn (1987) [FLAC]\01 - Adelie (for lady D.).wav
Pre-gap length 0:00:02.44
Peak level 63.4 %
Extraction speed 3.8 X
Track quality 99.9 %
Test CRC 356A055B
Copy CRC 356A055B
Cannot be verified as accurate (confidence 2) [D109D36D], AccurateRip returned [C60FA7EB] (AR v2)
Copy OK
Track 2
Filename I:\DL\Sylvain Kassap - Foehn (1987) [FLAC]\02 - Zaitut.wav
Peak level 93.3 %
Extraction speed 5.0 X
Track quality 100.0 %
Test CRC B0EAE0EE
Copy CRC B0EAE0EE
Cannot be verified as accurate (confidence 2) [6D94E61E], AccurateRip returned [B9E2FDD1] (AR v2)
Copy OK
Track 3
Filename I:\DL\Sylvain Kassap - Foehn (1987) [FLAC]\03 - Plancoet.wav
Pre-gap length 0:00:01.57
Peak level 47.9 %
Extraction speed 4.7 X
Track quality 100.0 %
Test CRC 1DB62A6E
Copy CRC 1DB62A6E
Cannot be verified as accurate (confidence 2) [EAF1B5D9], AccurateRip returned [63A370B8] (AR v2)
Copy OK
Track 4
Filename I:\DL\Sylvain Kassap - Foehn (1987) [FLAC]\04 - Llamarada.wav
Peak level 93.6 %
Extraction speed 5.9 X
Track quality 100.0 %
Test CRC 5BC8A9B4
Copy CRC 5BC8A9B4
Cannot be verified as accurate (confidence 2) [8F354A51], AccurateRip returned [D8A2885A] (AR v2)
Copy OK
Track 5
Filename I:\DL\Sylvain Kassap - Foehn (1987) [FLAC]\05 - Taragot.wav
Peak level 93.6 %
Extraction speed 6.5 X
Track quality 100.0 %
Test CRC 02B3DD37
Copy CRC 02B3DD37
Cannot be verified as accurate (confidence 2) [0AF64A92], AccurateRip returned [85F8ABF6] (AR v2)
Copy OK
Track 6
Filename I:\DL\Sylvain Kassap - Foehn (1987) [FLAC]\06 - Sadness, but.wav
Pre-gap length 0:00:00.86
Peak level 78.2 %
Extraction speed 5.8 X
Track quality 99.9 %
Test CRC 0A96516C
Copy CRC 0A96516C
Cannot be verified as accurate (confidence 2) [F93526FD], AccurateRip returned [B21334FC] (AR v2)
Copy OK
Track 7
Filename I:\DL\Sylvain Kassap - Foehn (1987) [FLAC]\07 - Le retour du touron.wav
Pre-gap length 0:00:00.30
Peak level 74.8 %
Extraction speed 6.9 X
Track quality 100.0 %
Test CRC 0ED6DF50
Copy CRC 0ED6DF50
Cannot be verified as accurate (confidence 2) [20B3E44B], AccurateRip returned [3436F380] (AR v2)
Copy OK
Track 8
Filename I:\DL\Sylvain Kassap - Foehn (1987) [FLAC]\08 - Claxophones et sarinettes.wav
Pre-gap length 0:00:01.06
Peak level 91.6 %
Extraction speed 7.2 X
Track quality 100.0 %
Test CRC F02F480D
Copy CRC F02F480D
Cannot be verified as accurate (confidence 2) [7ED87F36], AccurateRip returned [6577226D] (AR v2)
Copy OK
Track 9
Filename I:\DL\Sylvain Kassap - Foehn (1987) [FLAC]\09 - The last drop.wav
Pre-gap length 0:00:00.60
Peak level 71.5 %
Extraction speed 7.5 X
Track quality 100.0 %
Test CRC 635B69CA
Copy CRC 635B69CA
Cannot be verified as accurate (confidence 2) [D7D74001], AccurateRip returned [7AB31049] (AR v2)
Copy OK
No tracks could be verified as accurate
You may have a different pressing from the one(s) in the database
No errors occurred
End of status report
==== Log checksum 554F06032FCDC1DCD9C22BB40799B6E6643835D808B3DDDFD36EF92D1A2EDB5C ====
 
Содержание индексной карты (.CUE)
REM GENRE Jazz
REM DATE 1987
REM DISCID 5F09DA09
REM COMMENT "ExactAudioCopy v1.0b3"
PERFORMER "Sylvain Kassap"
TITLE "Foehn"
FILE "01 - Adelie (for lady D.).wav" WAVE
TRACK 01 AUDIO
TITLE "Adelie (for lady D.)"
PERFORMER "Sylvain Kassap"
ISRC FRX191001303
FLAGS PRE
PREGAP 00:00:33
INDEX 01 00:00:00
FILE "02 - Zaitut.wav" WAVE
TRACK 02 AUDIO
TITLE "Zaitut"
PERFORMER "Sylvain Kassap"
ISRC FRX191001304
FLAGS PRE
INDEX 01 00:00:00
TRACK 03 AUDIO
TITLE "Plancoet"
PERFORMER "Sylvain Kassap"
ISRC FRX191001305
FLAGS PRE
INDEX 00 04:35:30
FILE "03 - Plancoet.wav" WAVE
INDEX 01 00:00:00
FILE "04 - Llamarada.wav" WAVE
TRACK 04 AUDIO
TITLE "Llamarada"
PERFORMER "Sylvain Kassap"
ISRC FRX191001306
FLAGS PRE
INDEX 01 00:00:00
FILE "05 - Taragot.wav" WAVE
TRACK 05 AUDIO
TITLE "Taragot"
PERFORMER "Sylvain Kassap"
ISRC FRX191001307
FLAGS PRE
INDEX 01 00:00:00
TRACK 06 AUDIO
TITLE "Sadness, but"
PERFORMER "Sylvain Kassap"
ISRC FRX191001308
FLAGS PRE
INDEX 00 05:59:57
FILE "06 - Sadness, but.wav" WAVE
INDEX 01 00:00:00
TRACK 07 AUDIO
TITLE "Le retour du touron"
PERFORMER "Sylvain Kassap"
ISRC FRX191001309
FLAGS PRE
INDEX 00 04:08:00
FILE "07 - Le retour du touron.wav" WAVE
INDEX 01 00:00:00
TRACK 08 AUDIO
TITLE "Claxophones et sarinettes"
PERFORMER "Sylvain Kassap"
ISRC FRX191001310
FLAGS PRE
INDEX 00 04:26:27
FILE "08 - Claxophones et sarinettes.wav" WAVE
INDEX 01 00:00:00
TRACK 09 AUDIO
TITLE "The last drop"
PERFORMER "Sylvain Kassap"
ISRC FRX191001311
FLAGS PRE
INDEX 00 04:31:15
FILE "09 - The last drop.wav" WAVE
INDEX 01 00:00:00
Доп. информация: Recording, Mix at Studio Piccolo, Sept/oct 1987
 
Состав
Arranged By – Claude Barthelemy (tracks: 2), Sylvain Kassap (tracks: Except 2)
Saxophone, Clarinet, Keyboards, Percussion, Written-By – Sylvain Kassap
Any questions -> support@pro-jazz.com. По всем вопросам пишите -> support@pro-jazz.com
23:10
116
Нет комментариев. Ваш будет первым!