Вы используете незарегистрированную версию компонента "Вкладки"!

Поиск

(Free Jazz, Avant-Garde Jazz) Ornette Coleman - Ornette! - 1961, FLAC (tracks+.cue), lossless

(Free Jazz, Avant-Garde Jazz) Ornette Coleman - Ornette! - 1961, FLAC (tracks+.cue), lossless
Треклист:
Ornette Coleman - Ornette!
Жанр: Free Jazz, Avant-Garde Jazz
Страна-производитель диска: Германия
Год издания диска: 2003
Издатель (лейбл): Atlantic/WEA/Warner/Rhino (Atlantic Jazz Masters)
Номер по каталогу: 8122-73714-2
Страна: США
Аудиокодек: FLAC (*.flac)
Тип рипа: tracks+.cue
Битрейт аудио: lossless
Продолжительность: 54:28
Источник (релизер): drewster (what)
Наличие сканов в содержимом раздачи:
Треклист:
01. W.R.U. (Coleman) - 16:29
02. T. & T. (Coleman) - 4:38
03. C. & D. (Coleman) - 13:13
04. R.P.D.D. (Coleman) - 9:43
05. Proof Readers (Coleman) - 10:25
Состав:
Ornette Coleman - alto saxophone
Don Cherry - pocket trumpet
Scott LaFaro - bass
Ed Blackwell - drums
Recorded at Atlantic Recording Studios, New York on January 31, 1961.
 
Лог создания рипа
Exact Audio Copy V1.0 beta 3 from 29. August 2011
EAC extraction logfile from 27. February 2012, 16:12
Ornette Coleman / Ornette!
Used drive : ASUS DRW-20B1LT Adapter: 6 ID: 1
Read mode : Secure
Utilize accurate stream : Yes
Defeat audio cache : Yes
Make use of C2 pointers : No
Read offset correction : 6
Overread into Lead-In and Lead-Out : No
Fill up missing offset samples with silence : Yes
Delete leading and trailing silent blocks : No
Null samples used in CRC calculations : Yes
Used interface : Native Win32 interface for Win NT & 2000
Gap handling : Appended to previous track
Used output format : Internal WAV Routines
Sample format : 44.100 Hz; 16 Bit; Stereo
TOC of the extracted CD
Track | Start | Length | Start sector | End sector
---------------------------------------------------------
1 | 0:00.00 | 16:28.45 | 0 | 74144
2 | 16:28.45 | 4:38.30 | 74145 | 95024
3 | 21:07.00 | 13:13.20 | 95025 | 154519
4 | 34:20.20 | 9:43.17 | 154520 | 198261
5 | 44:03.37 | 10:25.10 | 198262 | 245146
Track 1
Filename C:\rip\01 - W.R.U..wav
Pre-gap length 0:00:02.00
Peak level 98.8 %
Extraction speed 78.2 X
Track quality 100.0 %
Test CRC E913D9A8
Copy CRC E913D9A8
Accurately ripped (confidence 6) [53D57D02] (AR v1)
Copy OK
Track 2
Filename C:\rip\02 - T. & T..wav
Pre-gap length 0:00:03.33
Peak level 92.2 %
Extraction speed 56.3 X
Track quality 100.0 %
Test CRC D69240E5
Copy CRC D69240E5
Accurately ripped (confidence 6) [BEA3771B] (AR v1)
Copy OK
Track 3
Filename C:\rip\03 - C. & D..wav
Pre-gap length 0:00:02.40
Peak level 89.8 %
Extraction speed 78.0 X
Track quality 100.0 %
Test CRC A6445159
Copy CRC A6445159
Accurately ripped (confidence 6) [687C4200] (AR v1)
Copy OK
Track 4
Filename C:\rip\04 - R.P.D.D..wav
Pre-gap length 0:00:02.55
Peak level 92.4 %
Extraction speed 71.7 X
Track quality 100.0 %
Test CRC 87075471
Copy CRC 87075471
Accurately ripped (confidence 6) [F8C9D95F] (AR v1)
Copy OK
Track 5
Filename C:\rip\05 - Proof Readers.wav
Pre-gap length 0:00:04.41
Peak level 98.8 %
Extraction speed 73.6 X
Track quality 99.9 %
Test CRC AAEE8F30
Copy CRC AAEE8F30
Accurately ripped (confidence 5) [D4230B65] (AR v1)
Copy OK
All tracks accurately ripped
No errors occurred
End of status report
==== Log checksum 1CF39AC882F7FDFB83FECB2859B924E152EB62ED7ED98512B2D5E0F298D82F97 ====
 
Содержание индексной карты (.CUE)
REM DATE 1962
REM DISCID 410CC405
REM COMMENT "ExactAudioCopy v1.0b3"
PERFORMER "Ornette Coleman"
TITLE "Ornette!"
FILE "01 - W.R.U..wav" WAVE
TRACK 01 AUDIO
TITLE "W.R.U."
PERFORMER "Ornette Coleman"
INDEX 01 00:00:00
TRACK 02 AUDIO
TITLE "T. & T."
PERFORMER "Ornette Coleman"
INDEX 00 16:25:12
FILE "02 - T. & T..wav" WAVE
INDEX 01 00:00:00
TRACK 03 AUDIO
TITLE "C. & D."
PERFORMER "Ornette Coleman"
INDEX 00 04:35:65
FILE "03 - C. & D..wav" WAVE
INDEX 01 00:00:00
TRACK 04 AUDIO
TITLE "R.P.D.D."
PERFORMER "Ornette Coleman"
INDEX 00 13:10:40
FILE "04 - R.P.D.D..wav" WAVE
INDEX 01 00:00:00
TRACK 05 AUDIO
TITLE "Proof Readers"
PERFORMER "Ornette Coleman"
INDEX 00 09:38:51
FILE "05 - Proof Readers.wav" WAVE
INDEX 01 00:00:00
 
Отчет CUETools
[CUETools log; Date: 16.03.2013 2:32:32; Version: 2.1.4]
[CTDB TOCID: vFQG7gxeRE3iv8In8NRr0oSWVhE-] found.
Track | CTDB Status
1 | (2/2) Accurately ripped
2 | (2/2) Accurately ripped
3 | (2/2) Accurately ripped
4 | (2/2) Accurately ripped
5 | (2/2) Accurately ripped
[AccurateRip ID: 000bb47b-00359d26-410cc405] found.
Track [ CRC | V2 ] Status
01 [53d57d02|3b521010] (08+00/17) Accurately ripped
02 [bea3771b|a426ef90] (08+00/17) Accurately ripped
03 [687c4200|8430c12f] (08+00/17) Accurately ripped
04 [f8c9d95f|63444ac2] (08+00/17) Accurately ripped
05 [d4230b65|e6280fd1] (07+00/16) Accurately ripped
Offsetted by -6:
01 [283bccb2] (00/17) No match (V2 was not tested)
02 [65c35a4d] (00/17) No match (V2 was not tested)
03 [9d04f5ba] (00/17) No match (V2 was not tested)
04 [e0ee24dd] (00/17) No match (V2 was not tested)
05 [d1ddedc1] (00/16) No match (V2 was not tested)
Track Peak [ CRC32 ] [W/O NULL] [ LOG ]
-- 98,8 [D05E26C7] [9D304264]
01 98,8 [E913D9A8] [35E858B0] CRC32
02 92,2 [D69240E5] [7FFED445] CRC32
03 89,7 [A6445159] [3D42D421] CRC32
04 92,4 [87075471] [12F5D320] CRC32
05 98,8 [AAEE8F30] [4C3836F2] CRC32
 
Review by Brian Olewnick
Recorded a little over a month after his groundbreaking work Free Jazz, this album found Coleman perhaps retrenching from that idea conceptually, but nonetheless plumbing his quartet music to ever greater heights of richness and creativity. Ornette! was the first time bassist Scott LaFaro recorded with Coleman, and the difference in approach between LaFaro and Charlie Haden is apparent from the opening notes of "W.R.U." There is a more direct propulsion and limberness to his playing, and he can be heard driving Coleman and Don Cherry actively and more aggressively than Haden's warm, languid phrasing. The cuts, with titles derived from the works of Sigmund Freud, are all gems and serve as wonderful launching pads for the musicians' improvisations. Coleman, by this time, was very comfortable in extended pieces, and he and his partners have no trouble filling in the time, never coming close to running out of ideas. Special mention should be made of Ed Blackwell, with one of his finest performances. Ornette! is a superb release and a must for all fans of Coleman and creative improvised music in general.
Any questions -> support@pro-jazz.com. По всем вопросам пишите -> support@pro-jazz.com
14:32
160
Нет комментариев. Ваш будет первым!