Вы используете незарегистрированную версию компонента "Вкладки"!

Поиск

(Free Jazz, Avant-Garde Jazz) Last Exit (Peter Brotzmann, Sonny Sharrock, Bill Laswell, Shannon Jackson) - The Noise Of Trouble (Live In Tokyo) - 1987, FLAC (image+.cue), lossless

Треклист:
Last Exit / The Noise Of Trouble (Live In Tokyo)

Жанр: Free Jazz, Avant-Garde Jazz
Страна-производитель диска: Germany
Год издания: 1987
Издатель (лейбл): Enemy Records
Номер по каталогу: EMCD 103-2
Страна: USA
Аудиокодек: FLAC (*.flac)
Тип рипа: image+.cue
Битрейт аудио: lossless
Продолжительность: 39:48
Источник: torrents.ru
Наличие сканов в содержимом раздачи: нет
Треклист:
01. Straw Dog / You Got Me Rockin' / Take Cover / Ma Rainey / Crack Butter [5:53]
02. Pig Cheese [1:56]
03. Panzer / Be-Bop [9:02]
04. Base Metal [2:28]
05. Blind Willie [6:22]
06. Needles-Balls [4:56]
07. Civil War Test [1:59]
08. Help Me Mo, I'm Blind [7:13]
 
Лог создания рипа
Exact Audio Copy V0.99 prebeta 4 from 23. January 2008
EAC extraction logfile from 24. September 2008, 9:10
Last Exit / The Noise of Trouble (Live in Tokyo)
Used drive : HL-DT-STDVDRAM GSA-H10N Adapter: 0 ID: 0
Read mode : Secure
Utilize accurate stream : Yes
Defeat audio cache : Yes
Make use of C2 pointers : No
Read offset correction : 667
Overread into Lead-In and Lead-Out : No
Fill up missing offset samples with silence : Yes
Delete leading and trailing silent blocks : No
Null samples used in CRC calculations : Yes
Used interface : Native Win32 interface for Win NT & 2000
Used output format : User Defined Encoder
Selected bitrate : 768 kBit/s
Quality : High
Add ID3 tag : No
Command line compressor : C:\Program Files\Exact Audio Copy\FLAC\FLAC.EXE
Additional command line options : --best -V -T "ARTIST=%a" -T "TITLE=%t" -T "ALBUM=%g" -T "DATE=%y" -T "TRACKNUMBER=%n" -T "GENRE=%m" -T "COMMENT=%e" %s -o %d
TOC of the extracted CD
Track | Start | Length | Start sector | End sector
---------------------------------------------------------
1 | 0:00.32 | 5:52.53 | 32 | 26484
2 | 5:53.10 | 1:56.05 | 26485 | 35189
3 | 7:49.15 | 9:01.42 | 35190 | 75806
4 | 16:50.57 | 2:28.18 | 75807 | 86924
5 | 19:19.00 | 6:21.50 | 86925 | 115549
6 | 25:40.50 | 4:56.20 | 115550 | 137769
7 | 30:36.70 | 1:59.02 | 137770 | 146696
8 | 32:35.72 | 7:12.48 | 146697 | 179144
Range status and errors
Selected range
Filename C:\Documents and Settings\sbesson\Bureau\Last Exit - The Noise of Trouble (Live in Tokyo).wav
Peak level 92.3 %
Range quality 100.0 %
Copy CRC 6BA8997D
Copy OK
No errors occurred
AccurateRip summary
Track 1 not present in database
Track 2 not present in database
Track 3 not present in database
Track 4 not present in database
Track 5 not present in database
Track 6 not present in database
Track 7 not present in database
Track 8 not present in database
None of the tracks are present in the AccurateRip database
End of status report
 
Содержание индексной карты (.CUE)
REM GENRE Jazz
REM DISCID 5E095408
REM COMMENT ExactAudioCopy v0.99pb4
PERFORMER "Last Exit"
TITLE "The Noise Of Trouble (Live In Tokyo)"
FILE "Last Exit - The Noise of Trouble (Live in Tokyo).flac" WAVE
TRACK 01 AUDIO
TITLE "Straw Dog / You Got Me Rockin' / Take Cover / Ma Rainey / Crack Butter"
INDEX 00 00:00:00
INDEX 01 00:00:32
TRACK 02 AUDIO
TITLE "Pig Cheese"
INDEX 00 05:50:45
INDEX 01 05:53:10
TRACK 03 AUDIO
TITLE "Panzer / Be-Bop"
INDEX 00 07:47:32
INDEX 01 07:49:15
TRACK 04 AUDIO
TITLE "Base Metal"
INDEX 00 16:49:60
INDEX 01 16:50:57
TRACK 05 AUDIO
TITLE "Blind Willie"
INDEX 00 19:16:45
INDEX 01 19:19:00
TRACK 06 AUDIO
TITLE "Needles-Balls"
INDEX 00 25:38:72
INDEX 01 25:40:50
TRACK 07 AUDIO
TITLE "Civil War Test"
INDEX 00 30:34:00
INDEX 01 30:36:70
TRACK 08 AUDIO
TITLE "Help Me Mo, I'm Blind"
INDEX 00 32:33:52
INDEX 01 32:35:72
Any questions -> support@pro-jazz.com. По всем вопросам пишите -> support@pro-jazz.com
01:05
144
Нет комментариев. Ваш будет первым!