Вы используете незарегистрированную версию компонента "Вкладки"!

Поиск

(Avant-Garde Jazz, Free Improvisation, Piano Jazz) Matthew Shipp - 4D - 2010, FLAC (tracks+.cue), lossless

Треклист:
•Matthew Shipp - 4D•
Жанр: Avant-Garde Jazz, Free Improvisation, Piano Jazz
Год издания: 2010
Издатель (лейбл): Thirsty Ear
Номер по каталогу: THI 57192.2
Аудиокодек: FLAC (*.flac)
Тип рипа: tracks+.cue
Битрейт аудио: lossless
Продолжительность: 00:59:55
Источник (релизер): opeth
Наличие сканов в содержимом раздачи: да
Треклист:
01.4D [04:18]
02.The The Crack In the Piano's Egg [05:06]
03.Equilibrium [03:08]
04.Teleportation [04:16]
05.Dark Matter [02:34]
06.Stairs [02:57]
07.Jazz Paradox [04:48]
08.Blue Web in Space [05:36]
09.What is This Thing Called Love [03:29]
10.Autumn Leaves [02:46]
11.Sequence and Vibration [08:00]
12.Frere Jacques [02:59]
13.Prelude to a Kiss [03:01]
14.What a Friend We Have in Jesus [00:54]
15.Primal Harmonic [03:42]
16.Greensleeves [02:16]
Personnel:
Matthew Shipp - acoustic piano
 
Лог создания рипа
Exact Audio Copy V1.0 beta 2 from 29. April 2011
EAC extraction logfile from 24. May 2012, 17:30
Matthew Shipp / 4D
Used drive : PLDS DVD+-RW DS-8A5SH Adapter: 0 ID: 0
Read mode : Secure
Utilize accurate stream : Yes
Defeat audio cache : Yes
Make use of C2 pointers : No
Read offset correction : 6
Overread into Lead-In and Lead-Out : No
Fill up missing offset samples with silence : Yes
Delete leading and trailing silent blocks : No
Null samples used in CRC calculations : Yes
Used interface : Native Win32 interface for Win NT & 2000
Gap handling : Appended to previous track
Used output format : User Defined Encoder
Selected bitrate : 256 kBit/s
Quality : High
Add ID3 tag : No
Command line compressor : C:\Program Files (x86)\FLAC\flac.exe
Additional command line options : -8 -V -T "ARTIST=%artist%" -T "TITLE=%title%" -T "ALBUM=%albumtitle%" -T "DATE=%year%" -T "TRACKNUMBER=%tracknr%" -T "TOTALTRACKS=%numtracks%" -T "GENRE=%genre%" -T "ALBUMARTIST=%albumartist%" -T "ALBUM ARTIST=%albumartist%
TOC of the extracted CD
Track | Start | Length | Start sector | End sector
---------------------------------------------------------
1 | 0:00.00 | 4:18.37 | 0 | 19386
2 | 4:18.37 | 5:06.00 | 19387 | 42336
3 | 9:24.37 | 3:08.00 | 42337 | 56436
4 | 12:32.37 | 4:16.57 | 56437 | 75693
5 | 16:49.19 | 2:34.38 | 75694 | 87281
6 | 19:23.57 | 2:57.00 | 87282 | 100556
7 | 22:20.57 | 4:48.38 | 100557 | 122194
8 | 27:09.20 | 5:36.37 | 122195 | 147431
9 | 32:45.57 | 3:29.57 | 147432 | 163163
10 | 36:15.39 | 2:46.00 | 163164 | 175613
11 | 39:01.39 | 8:00.00 | 175614 | 211613
12 | 47:01.39 | 2:59.19 | 211614 | 225057
13 | 50:00.58 | 3:01.19 | 225058 | 238651
14 | 53:02.02 | 0:54.00 | 238652 | 242701
15 | 53:56.02 | 3:42.38 | 242702 | 259389
16 | 57:38.40 | 2:16.38 | 259390 | 269627
Track 1
Filename C:\Users\porcupine\Desktop\EAC\01 - 4D.wav
Pre-gap length 0:00:02.00
Peak level 33.1 %
Extraction speed 2.5 X
Track quality 100.0 %
Test CRC BC554C3E
Copy CRC BC554C3E
Track not present in AccurateRip database
Copy OK
Track 2
Filename C:\Users\porcupine\Desktop\EAC\02 - The The Crack In the Piano's Egg.wav
Peak level 42.1 %
Extraction speed 2.9 X
Track quality 100.0 %
Test CRC 2CB56783
Copy CRC 2CB56783
Track not present in AccurateRip database
Copy OK
Track 3
Filename C:\Users\porcupine\Desktop\EAC\03 - Equilibrium.wav
Peak level 32.6 %
Extraction speed 3.0 X
Track quality 100.0 %
Test CRC F14E2D5F
Copy CRC F14E2D5F
Track not present in AccurateRip database
Copy OK
Track 4
Filename C:\Users\porcupine\Desktop\EAC\04 - Teleportation.wav
Peak level 49.8 %
Extraction speed 3.4 X
Track quality 100.0 %
Test CRC FF770BE9
Copy CRC FF770BE9
Track not present in AccurateRip database
Copy OK
Track 5
Filename C:\Users\porcupine\Desktop\EAC\05 - Dark Matter.wav
Peak level 35.7 %
Extraction speed 3.2 X
Track quality 100.0 %
Test CRC A64B4AF0
Copy CRC A64B4AF0
Track not present in AccurateRip database
Copy OK
Track 6
Filename C:\Users\porcupine\Desktop\EAC\06 - Stairs.wav
Peak level 33.1 %
Extraction speed 3.5 X
Track quality 100.0 %
Test CRC A6384A4C
Copy CRC A6384A4C
Track not present in AccurateRip database
Copy OK
Track 7
Filename C:\Users\porcupine\Desktop\EAC\07 - Jazz Paradox.wav
Peak level 46.0 %
Extraction speed 3.4 X
Track quality 99.9 %
Test CRC 9D7C1486
Copy CRC 9D7C1486
Track not present in AccurateRip database
Copy OK
Track 8
Filename C:\Users\porcupine\Desktop\EAC\08 - Blue Web in Space.wav
Peak level 42.7 %
Extraction speed 4.2 X
Track quality 100.0 %
Test CRC F931867A
Copy CRC F931867A
Track not present in AccurateRip database
Copy OK
Track 9
Filename C:\Users\porcupine\Desktop\EAC\09 - What is This Thing Called Love.wav
Peak level 30.8 %
Extraction speed 4.1 X
Track quality 100.0 %
Test CRC E5871466
Copy CRC E5871466
Track not present in AccurateRip database
Copy OK
Track 10
Filename C:\Users\porcupine\Desktop\EAC\10 - Autumn Leaves.wav
Peak level 48.3 %
Extraction speed 3.3 X
Track quality 99.9 %
Test CRC 4F41151C
Copy CRC 4F41151C
Track not present in AccurateRip database
Copy OK
Track 11
Filename C:\Users\porcupine\Desktop\EAC\11 - Sequence and Vibration.wav
Peak level 67.6 %
Extraction speed 4.9 X
Track quality 100.0 %
Test CRC D7ED13D3
Copy CRC D7ED13D3
Track not present in AccurateRip database
Copy OK
Track 12
Filename C:\Users\porcupine\Desktop\EAC\12 - Frere Jacques.wav
Peak level 45.6 %
Extraction speed 3.5 X
Track quality 99.9 %
Test CRC A9C0FDCE
Copy CRC A9C0FDCE
Track not present in AccurateRip database
Copy OK
Track 13
Filename C:\Users\porcupine\Desktop\EAC\13 - Prelude to a Kiss.wav
Peak level 47.8 %
Extraction speed 3.7 X
Track quality 99.9 %
Test CRC 72F3E444
Copy CRC 72F3E444
Track not present in AccurateRip database
Copy OK
Track 14
Filename C:\Users\porcupine\Desktop\EAC\14 - What a Friend We Have in Jesus.wav
Peak level 26.7 %
Extraction speed 3.2 X
Track quality 100.0 %
Test CRC 28D9166D
Copy CRC 28D9166D
Track not present in AccurateRip database
Copy OK
Track 15
Filename C:\Users\porcupine\Desktop\EAC\15 - Primal Harmonic.wav
Peak level 43.5 %
Extraction speed 5.0 X
Track quality 100.0 %
Test CRC 5D4ACBD9
Copy CRC 5D4ACBD9
Track not present in AccurateRip database
Copy OK
Track 16
Filename C:\Users\porcupine\Desktop\EAC\16 - Greensleeves.wav
Peak level 81.3 %
Extraction speed 4.4 X
Track quality 100.0 %
Test CRC C22E7B81
Copy CRC C22E7B81
Track not present in AccurateRip database
Copy OK
None of the tracks are present in the AccurateRip database
No errors occurred
End of status report
==== Log checksum 2052E52734A76E227D0E8F26861C90FE82EDA37C12F7400CFE71199E9F008DEC ====
 
Содержание индексной карты (.CUE)
REM GENRE Jazz
REM DATE 2010
REM DISCID C50E0B10
REM COMMENT "ExactAudioCopy v1.0b2"
PERFORMER "Matthew Shipp"
TITLE "4D"
FILE "01 - 4D.wav" WAVE
TRACK 01 AUDIO
TITLE "4D"
PERFORMER "Matthew Shipp"
INDEX 01 00:00:00
FILE "02 - The The Crack In the Piano's Egg.wav" WAVE
TRACK 02 AUDIO
TITLE "The The Crack In the Piano's Egg"
PERFORMER "Matthew Shipp"
INDEX 01 00:00:00
FILE "03 - Equilibrium.wav" WAVE
TRACK 03 AUDIO
TITLE "Equilibrium"
PERFORMER "Matthew Shipp"
INDEX 01 00:00:00
FILE "04 - Teleportation.wav" WAVE
TRACK 04 AUDIO
TITLE "Teleportation"
PERFORMER "Matthew Shipp"
INDEX 01 00:00:00
FILE "05 - Dark Matter.wav" WAVE
TRACK 05 AUDIO
TITLE "Dark Matter"
PERFORMER "Matthew Shipp"
INDEX 01 00:00:00
FILE "06 - Stairs.wav" WAVE
TRACK 06 AUDIO
TITLE "Stairs"
PERFORMER "Matthew Shipp"
INDEX 01 00:00:00
FILE "07 - Jazz Paradox.wav" WAVE
TRACK 07 AUDIO
TITLE "Jazz Paradox"
PERFORMER "Matthew Shipp"
INDEX 01 00:00:00
FILE "08 - Blue Web in Space.wav" WAVE
TRACK 08 AUDIO
TITLE "Blue Web in Space"
PERFORMER "Matthew Shipp"
INDEX 01 00:00:00
FILE "09 - What is This Thing Called Love.wav" WAVE
TRACK 09 AUDIO
TITLE "What is This Thing Called Love"
PERFORMER "Matthew Shipp"
INDEX 01 00:00:00
FILE "10 - Autumn Leaves.wav" WAVE
TRACK 10 AUDIO
TITLE "Autumn Leaves"
PERFORMER "Matthew Shipp"
INDEX 01 00:00:00
FILE "11 - Sequence and Vibration.wav" WAVE
TRACK 11 AUDIO
TITLE "Sequence and Vibration"
PERFORMER "Matthew Shipp"
INDEX 01 00:00:00
FILE "12 - Frere Jacques.wav" WAVE
TRACK 12 AUDIO
TITLE "Frere Jacques"
PERFORMER "Matthew Shipp"
INDEX 01 00:00:00
FILE "13 - Prelude to a Kiss.wav" WAVE
TRACK 13 AUDIO
TITLE "Prelude to a Kiss"
PERFORMER "Matthew Shipp"
INDEX 01 00:00:00
FILE "14 - What a Friend We Have in Jesus.wav" WAVE
TRACK 14 AUDIO
TITLE "What a Friend We Have in Jesus"
PERFORMER "Matthew Shipp"
INDEX 01 00:00:00
FILE "15 - Primal Harmonic.wav" WAVE
TRACK 15 AUDIO
TITLE "Primal Harmonic"
PERFORMER "Matthew Shipp"
INDEX 01 00:00:00
FILE "16 - Greensleeves.wav" WAVE
TRACK 16 AUDIO
TITLE "Greensleeves"
PERFORMER "Matthew Shipp"
INDEX 01 00:00:00
 
Лог проверки качества
AUDIOCHECKER v1.2 - by Dester - opdester@freemail.hu
~~~~~~~~~~~~~~~~~
01 -===- D:\Mattew Shipp - 4D (2010) [FLAC]\01 - 4D.flac
Extracted successfully
Conclusion: This track looks like CDDA with probability 100%
02 -===- D:\Mattew Shipp - 4D (2010) [FLAC]\02 - The The Crack In the Piano's Egg.flac
Extracted successfully
Conclusion: This track looks like CDDA with probability 100%
03 -===- D:\Mattew Shipp - 4D (2010) [FLAC]\03 - Equilibrium.flac
Extracted successfully
Conclusion: This track looks like CDDA with probability 100%
04 -===- D:\Mattew Shipp - 4D (2010) [FLAC]\04 - Teleportation.flac
Extracted successfully
Conclusion: This track looks like CDDA with probability 100%
05 -===- D:\Mattew Shipp - 4D (2010) [FLAC]\05 - Dark Matter.flac
Extracted successfully
Conclusion: This track looks like CDDA with probability 100%
06 -===- D:\Mattew Shipp - 4D (2010) [FLAC]\06 - Stairs.flac
Extracted successfully
Conclusion: This track looks like CDDA with probability 100%
07 -===- D:\Mattew Shipp - 4D (2010) [FLAC]\07 - Jazz Paradox.flac
Extracted successfully
Conclusion: This track looks like CDDA with probability 100%
08 -===- D:\Mattew Shipp - 4D (2010) [FLAC]\08 - Blue Web in Space.flac
Extracted successfully
Conclusion: This track looks like CDDA with probability 99%
09 -===- D:\Mattew Shipp - 4D (2010) [FLAC]\09 - What is This Thing Called Love.flac
Extracted successfully
Conclusion: This track looks like CDDA with probability 99%
10 -===- D:\Mattew Shipp - 4D (2010) [FLAC]\10 - Autumn Leaves.flac
Extracted successfully
Conclusion: This track looks like CDDA with probability 100%
11 -===- D:\Mattew Shipp - 4D (2010) [FLAC]\11 - Sequence and Vibration.flac
Extracted successfully
Conclusion: This track looks like CDDA with probability 99%
12 -===- D:\Mattew Shipp - 4D (2010) [FLAC]\12 - Frere Jacques.flac
Extracted successfully
Conclusion: This track looks like CDDA with probability 100%
13 -===- D:\Mattew Shipp - 4D (2010) [FLAC]\13 - Prelude to a Kiss.flac
Extracted successfully
Conclusion: This track looks like CDDA with probability 100%
14 -===- D:\Mattew Shipp - 4D (2010) [FLAC]\14 - What a Friend We Have in Jesus.flac
Extracted successfully
Conclusion: This track looks like MPEG with probability 100%
15 -===- D:\Mattew Shipp - 4D (2010) [FLAC]\15 - Primal Harmonic.flac
Extracted successfully
Conclusion: This track looks like CDDA with probability 100%
16 -===- D:\Mattew Shipp - 4D (2010) [FLAC]\16 - Greensleeves.flac
Extracted successfully
Conclusion: This track looks like CDDA with probability 100%
Any questions -> support@pro-jazz.com. По всем вопросам пишите -> support@pro-jazz.com
01:04
135
Нет комментариев. Ваш будет первым!