Вы используете незарегистрированную версию компонента "Вкладки"!

Поиск

(Free Jazz, Avant-Garde Jazz) Jim Knodle & Anansi (feat. Michael Vlatkovich) - Wending - 1999, FLAC (tracks+.cue), lossless

(Free Jazz, Avant-Garde Jazz) Jim Knodle & Anansi (feat. Michael Vlatkovich) - Wending - 1999, FLAC (tracks+.cue), lossless
Треклист:
Jim Knodle & Anansi (feat. Michael Vlatkovich) / Wending
Жанр: Free Jazz, Avant-Garde Jazz
Страна-производитель диска: US
Год издания: 1999
Издатель (лейбл): 9 Winds Records
Номер по каталогу: NWCD0263
Страна: US
Аудиокодек: FLAC (*.flac)
Тип рипа: tracks+.cue
Битрейт аудио: lossless
Продолжительность: 48:46
Источник (релизер): свой фирменный диск
Наличие сканов в содержимом раздачи:
Треклист:
1. Wending 15:06
2. No Before Like More 9:16
3. M.D.D. - Four 4 25:05
 
Лог создания рипа
Exact Audio Copy V1.0 beta 3 from 29. August 2011
EAC extraction logfile from 1. March 2013, 20:52
Jim Knodle & Anansi / Wending
Used drive : PIONEER DVD-RW DVR-115D Adapter: 0 ID: 0
Read mode : Secure
Utilize accurate stream : Yes
Defeat audio cache : Yes
Make use of C2 pointers : No
Read offset correction : 48
Overread into Lead-In and Lead-Out : No
Fill up missing offset samples with silence : Yes
Delete leading and trailing silent blocks : No
Null samples used in CRC calculations : Yes
Used interface : Installed external ASPI interface
Gap handling : Appended to previous track
Used output format : User Defined Encoder
Selected bitrate : 896 kBit/s
Quality : High
Add ID3 tag : No
Command line compressor : C:\Program Files\Exact Audio Copy\FLAC\FLAC.EXE
Additional command line options : -6 -V -T "ARTIST=%artist%" -T "TITLE=%title%" -T "ALBUM=%albumtitle%" -T "DATE=%year%" -T "TRACKNUMBER=%tracknr%" -T "GENRE=%genre%" -T "COMMENT=%comment%" -T "BAND=%albuminterpret%" -T "COMPOSER=%composer%" %haslyrics%--tag-from-file=LYRICS="%lyricsfile%"%haslyrics% -T "DISCNUMBER=%cdnumber%" -T "TOTALDISCS=%totalcds%" -T "TOTALTRACKS=%numtracks%" %hascover%--picture="%coverfile%"%hascover% %source% -o %dest%
TOC of the extracted CD
Track | Start | Length | Start sector | End sector
---------------------------------------------------------
1 | 0:00.00 | 15:00.32 | 0 | 67531
2 | 15:00.32 | 9:16.61 | 67532 | 109292
3 | 24:17.18 | 24:28.63 | 109293 | 219455
Track 1
Filename D:\zzz\01 - Wending.wav
Pre-gap length 0:00:02.00
Peak level 96.6 %
Extraction speed 5.4 X
Track quality 100.0 %
Test CRC 74FDD144
Copy CRC 74FDD144
Accurately ripped (confidence 2) [78A07157] (AR v1)
Copy OK
Track 2
Filename D:\zzz\02 - No Before Like More.wav
Pre-gap length 0:00:05.00
Peak level 96.6 %
Extraction speed 6.5 X
Track quality 100.0 %
Test CRC 5FD87638
Copy CRC 5FD87638
Accurately ripped (confidence 2) [60AFDCC1] (AR v1)
Copy OK
Track 3
Filename D:\zzz\03 - M.D.D. - Four 4.wav
Pre-gap length 0:00:05.00
Peak level 96.6 %
Extraction speed 8.0 X
Track quality 100.0 %
Test CRC 77003F1B
Copy CRC 77003F1B
Accurately ripped (confidence 2) [0D0D4062] (AR v1)
Copy OK
All tracks accurately ripped
No errors occurred
End of status report
==== Log checksum 15F93E85D42FE974BF2A706949903B3A53C94B0D08F0B82397D8450FA275949C ====
 
Содержание индексной карты (.CUE)
REM GENRE Avantgarde
REM DATE 1999
REM DISCID 200B6E03
REM COMMENT "ExactAudioCopy v1.0b3"
PERFORMER "Jim Knodle & Anansi"
TITLE "Wending"
FILE "01 - Wending.wav" WAVE
TRACK 01 AUDIO
TITLE "Wending"
PERFORMER "Jim Knodle & Anansi"
INDEX 01 00:00:00
TRACK 02 AUDIO
TITLE "No Before Like More"
PERFORMER "Jim Knodle & Anansi"
INDEX 00 14:55:32
FILE "02 - No Before Like More.wav" WAVE
INDEX 01 00:00:00
TRACK 03 AUDIO
TITLE "M.D.D. - Four 4"
PERFORMER "Jim Knodle & Anansi"
INDEX 00 09:11:61
FILE "03 - M.D.D. - Four 4.wav" WAVE
INDEX 01 00:00:00
 
Лог проверки качества
d:\>d:\aucdtect -d/-m0 d:\zzz\*.wav
auCDtect: CD records authenticity detector, version 0.8.2
Copyright (c) 2004 Oleg Berngardt. All rights reserved.
Copyright (c) 2004 Alexander Djourik. All rights reserved.
------------------------------------------------------------
Processing file: [01. Wending.wav]
------------------------------------------------------------
This track looks like CDDA with probability 100%
------------------------------------------------------------
Processing file: [02. No Before Like More.wav]
------------------------------------------------------------
This track looks like CDDA with probability 99%
------------------------------------------------------------
Processing file: [03. M.D.D. - Four 4.wav]
------------------------------------------------------------
This track looks like CDDA with probability 100%
------------------------------------------------------------
Final Conclusion:
------------------------------------------------------------
These tracks looks like CDDA with probability 100%
Доп. информация:
 
AMG Review
Recorded September 24th & October 25th, 1999 at Jack Straw Productions
Produced by Jim Knodle
Engineered by Doug Haire
All compositions copyright 1999 by Jim Knodle
All rights reserved
This recording was made possible by a grant from the Artists' Assistance Program of the Jack Straw Foundation
1. is based on a serial matrix, and violates just about every rule od serial composition.
2. is about going to sleep in Iowa, while hearing train whistles from twenty miles away.
3. is composed to the word-rhythm of the poem "Miles D", by Pamela Moore-Dionne. The sole instruction going in was that we would play each theme only once.
This recording was made using the Blaumlein Technique. Two stereo mics were placed one over the other, at a ninety-degree angle, and the musicians gathered in a circle around them.
Special thanks to: Doug Haire, Alistair Hood, Pamela Moore-Dionne, Joan Rabinowitz, and Z.
 
Состав
Anansi is:
Jim Knodle: trumpet
Michael Vlatkovich: trombone
Paul Sawyer: guitar
Lynette Westendorf: piano (1,2)
Dan O'Brien: bass
Don Berman: drums
Any questions -> support@pro-jazz.com. По всем вопросам пишите -> support@pro-jazz.com
09:48
187
Нет комментариев. Ваш будет первым!