Вы используете незарегистрированную версию компонента "Вкладки"!

Поиск

(Avant-Garde Jazz, Free Improvisation) Frode Gjerstad Trio - The Other Side - 2006, APE (tracks+.cue), lossless

(Avant-Garde Jazz, Free Improvisation) Frode Gjerstad Trio - The Other Side - 2006, APE (tracks+.cue), lossless
Треклист:
•Frode Gjerstad Trio - The Other Side•
Жанр: Avant-Garde Jazz, Free Improvisation
Год издания: 2006
Издатель (лейбл): Ayler Records
Номер по каталогу: aylDl-019
Аудиокодек: APE (*.ape)
Тип рипа: tracks+.cue
Битрейт аудио: lossless
Продолжительность: 00:50:34
Источник (релизер): Рип с диска.
Наличие сканов в содержимом раздачи: да
Треклист:
01. First Cut [19:06]
02. The Ballade [11:46]
03. The Other Side [09:55]
04. The Duo [09:46]
 
Лог создания рипа
Exact Audio Copy V1.0 beta 3 from 29. August 2011
EAC extraction logfile from 15. February 2013, 20:34
Frode Gjerstad / The Other Side
Used drive : Optiarc DVD RW AD-5200A Adapter: 0 ID: 0
Read mode : Secure
Utilize accurate stream : Yes
Defeat audio cache : Yes
Make use of C2 pointers : No
Read offset correction : 48
Overread into Lead-In and Lead-Out : No
Fill up missing offset samples with silence : Yes
Delete leading and trailing silent blocks : No
Null samples used in CRC calculations : Yes
Used interface : Native Win32 interface for Win NT & 2000
Gap handling : Appended to previous track
Used output format : User Defined Encoder
Selected bitrate : 128 kBit/s
Quality : High
Add ID3 tag : No
Command line compressor : F:\Program Files\Monkey's Audio\wapet.exe
Additional command line options : %dest% -t "Genre=%genre%" -t "Artist=%artist%" -t "Title=%title%" -t "Album=%albumtitle%" -t "Year=%year%" -t "Track=%tracknr%" -t "Comment=%comment%" mac.exe %source% %dest% -c3000
TOC of the extracted CD
Track | Start | Length | Start sector | End sector
---------------------------------------------------------
1 | 0:00.00 | 19:06.29 | 0 | 85978
2 | 19:06.29 | 11:46.37 | 85979 | 138965
3 | 30:52.66 | 9:55.23 | 138966 | 183613
4 | 40:48.14 | 9:46.37 | 183614 | 227600
Track 1
Filename G:\2006.Frode Gjerstad Trio - The Other Side\01. First Cut.wav
Pre-gap length 0:00:02.00
Peak level 99.8 %
Extraction speed 3.0 X
Track quality 99.9 %
Test CRC A15143DA
Copy CRC A15143DA
Track not present in AccurateRip database
Copy OK
Track 2
Filename G:\2006.Frode Gjerstad Trio - The Other Side\02. The Ballade.wav
Pre-gap length 0:00:01.74
Peak level 99.8 %
Extraction speed 3.7 X
Track quality 99.9 %
Test CRC F85C8AEB
Copy CRC F85C8AEB
Track not present in AccurateRip database
Copy OK
Track 3
Filename G:\2006.Frode Gjerstad Trio - The Other Side\03. The Other Side.wav
Pre-gap length 0:00:01.74
Peak level 99.8 %
Extraction speed 4.3 X
Track quality 100.0 %
Test CRC 7B54523E
Copy CRC 7B54523E
Track not present in AccurateRip database
Copy OK
Track 4
Filename G:\2006.Frode Gjerstad Trio - The Other Side\04. The Duo.wav
Pre-gap length 0:00:01.74
Peak level 100.0 %
Extraction speed 4.2 X
Track quality 100.0 %
Test CRC D601CF59
Copy CRC D601CF59
Track not present in AccurateRip database
Copy OK
None of the tracks are present in the AccurateRip database
No errors occurred
End of status report
==== Log checksum 2C0CBD820F5FE9610D0FE8B21E8ADA7BF3CAEBE40D30DEA4F601504165BC3BA3 ====
 
Содержание индексной карты (.CUE)
REM GENRE Jazz
REM DATE 2006
REM DISCID 2D0BDA04
REM COMMENT "ExactAudioCopy v1.0b3"
PERFORMER "Frode Gjerstad"
TITLE "The Other Side"
FILE "01. First Cut.wav" WAVE
TRACK 01 AUDIO
TITLE "First Cut"
PERFORMER "Frode Gjerstad"
ISRC 000000000000
FLAGS DCP
INDEX 01 00:00:00
TRACK 02 AUDIO
TITLE "The Ballade"
PERFORMER "Frode Gjerstad"
ISRC 000000000000
FLAGS DCP
INDEX 00 19:04:30
FILE "02. The Ballade.wav" WAVE
INDEX 01 00:00:00
TRACK 03 AUDIO
TITLE "The Other Side"
PERFORMER "Frode Gjerstad"
ISRC 000000000000
FLAGS DCP
INDEX 00 11:44:38
FILE "03. The Other Side.wav" WAVE
INDEX 01 00:00:00
TRACK 04 AUDIO
TITLE "The Duo"
PERFORMER "Frode Gjerstad"
ISRC 000000000000
FLAGS DCP
INDEX 00 09:53:24
FILE "04. The Duo.wav" WAVE
INDEX 01 00:00:00
 
Состав
Personnel:
Frode Gjerstad - as
William Parker - b, fl
Hamid Drake - dr
Any questions -> support@pro-jazz.com. По всем вопросам пишите -> support@pro-jazz.com
09:49
152
Нет комментариев. Ваш будет первым!