Вы используете незарегистрированную версию компонента "Вкладки"!

Поиск

(Free Jazz, Avant-Garde Jazz) Harry Miller's Isipingo (with Keith Tippett, Louis Moholo, Stan Tracey, Marc Charig, Mike Osborne) - Full Steam Ahead (recorded 1975-1977) - 2009, FLAC (tracks+.cue), lossless

(Free Jazz, Avant-Garde Jazz) Harry Miller's Isipingo (with Keith Tippett, Louis Moholo, Stan Tracey, Marc Charig, Mike Osborne) - Full Steam Ahead (recorded 1975-1977) - 2009, FLAC (tracks+.cue), lossless
Треклист:
Harry Miller's Isipingo / Full Steam Ahead
Жанр: Free Jazz, Avant-Garde Jazz
Страна-производитель диска: Canada
Год издания: 2009
Издатель (лейбл): Reel Recordings
Номер по каталогу: RR012
Страна: South Africa, UK
Аудиокодек: FLAC (*.flac)
Тип рипа: tracks+.cue
Битрейт аудио: lossless
Продолжительность: 51:50
Источник (релизер): свой фирменный диск
Наличие сканов в содержимом раздачи:
Треклист:
1 When Hey! 14:35
2 Good Heavens Evans! 11:58
3 Family Affair 5:59
4 Children At Play 9:26
5 Dancing Damon 9:52
 
Лог создания рипа
Exact Audio Copy V1.0 beta 3 from 29. August 2011
EAC extraction logfile from 1. October 2013, 23:07
Harry Miller's Isipingo / Full Steam Ahead
Used drive : TSSTcorpCDDVDW SH-222AB Adapter: 1 ID: 0
Read mode : Secure
Utilize accurate stream : Yes
Defeat audio cache : Yes
Make use of C2 pointers : No
Read offset correction : 6
Overread into Lead-In and Lead-Out : No
Fill up missing offset samples with silence : Yes
Delete leading and trailing silent blocks : No
Null samples used in CRC calculations : Yes
Used interface : Installed external ASPI interface
Gap handling : Appended to previous track
Used output format : User Defined Encoder
Selected bitrate : 896 kBit/s
Quality : High
Add ID3 tag : No
Command line compressor : C:\Program Files\Exact Audio Copy\FLAC\FLAC.EXE
Additional command line options : -6 -V -T "ARTIST=%artist%" -T "TITLE=%title%" -T "ALBUM=%albumtitle%" -T "DATE=%year%" -T "TRACKNUMBER=%tracknr%" -T "GENRE=%genre%" -T "COMMENT=%comment%" -T "BAND=%albuminterpret%" -T "COMPOSER=%composer%" %haslyrics%--tag-from-file=LYRICS="%lyricsfile%"%haslyrics% -T "DISCNUMBER=%cdnumber%" -T "TOTALDISCS=%totalcds%" -T "TOTALTRACKS=%numtracks%" %hascover%--picture="%coverfile%"%hascover% %source% -o %dest%
TOC of the extracted CD
Track | Start | Length | Start sector | End sector
---------------------------------------------------------
1 | 0:00.00 | 14:35.18 | 0 | 65642
2 | 14:35.18 | 11:57.62 | 65643 | 119479
3 | 26:33.05 | 5:59.21 | 119480 | 146425
4 | 32:32.26 | 9:25.61 | 146426 | 188861
5 | 41:58.12 | 9:52.29 | 188862 | 233290
Track 1
Filename D:\zzz\01 - Whey Hey!.wav
Pre-gap length 0:00:02.00
Peak level 100.0 %
Extraction speed 3.0 X
Track quality 100.0 %
Test CRC C253483B
Copy CRC C253483B
Accurately ripped (confidence 1) [0A613572] (AR v1)
Copy OK
Track 2
Filename D:\zzz\02 - Good Heavens Evans!.wav
Peak level 100.0 %
Extraction speed 3.0 X
Track quality 100.0 %
Test CRC 5980C850
Copy CRC 5980C850
Accurately ripped (confidence 1) [5E458F79] (AR v1)
Copy OK
Track 3
Filename D:\zzz\03 - Family Affair.wav
Peak level 97.5 %
Extraction speed 2.8 X
Track quality 100.0 %
Test CRC F5D25F58
Copy CRC F5D25F58
Accurately ripped (confidence 1) [E02C0C7E] (AR v1)
Copy OK
Track 4
Filename D:\zzz\04 - Children At Play.wav
Peak level 100.0 %
Extraction speed 2.9 X
Track quality 100.0 %
Test CRC EAFFB2E6
Copy CRC EAFFB2E6
Accurately ripped (confidence 1) [1FF897EF] (AR v1)
Copy OK
Track 5
Filename D:\zzz\05 - Dancing Damon.wav
Peak level 96.2 %
Extraction speed 2.9 X
Track quality 100.0 %
Test CRC 905FAD7E
Copy CRC 905FAD7E
Accurately ripped (confidence 1) [46BF8365] (AR v1)
Copy OK
All tracks accurately ripped
No errors occurred
End of status report
==== Log checksum E80366585F02962FB4A21ED002AFF1E7B1F9013D9AA8DF3C16568C7DA37FDA12 ====
 
Содержание индексной карты (.CUE)
REM GENRE "Free Jazz"
REM DATE 2009
REM DISCID 480C2605
REM COMMENT "ExactAudioCopy v1.0b3"
PERFORMER "Harry Miller's Isipingo"
TITLE "Full Steam Ahead"
FILE "01 - Whey Hey!.wav" WAVE
TRACK 01 AUDIO
TITLE "Whey Hey!"
PERFORMER "Harry Miller's Isipingo"
INDEX 01 00:00:00
FILE "02 - Good Heavens Evans!.wav" WAVE
TRACK 02 AUDIO
TITLE "Good Heavens Evans!"
PERFORMER "Harry Miller's Isipingo"
INDEX 01 00:00:00
FILE "03 - Family Affair.wav" WAVE
TRACK 03 AUDIO
TITLE "Family Affair"
PERFORMER "Harry Miller's Isipingo"
INDEX 01 00:00:00
FILE "04 - Children At Play.wav" WAVE
TRACK 04 AUDIO
TITLE "Children At Play"
PERFORMER "Harry Miller's Isipingo"
INDEX 01 00:00:00
FILE "05 - Dancing Damon.wav" WAVE
TRACK 05 AUDIO
TITLE "Dancing Damon"
PERFORMER "Harry Miller's Isipingo"
INDEX 01 00:00:00
 
Лог проверки качества
d:\>d:\aucdtect -d/-m0 d:\zzz\*.wav
auCDtect: CD records authenticity detector, version 0.8.2
Copyright (c) 2004 Oleg Berngardt. All rights reserved.
Copyright (c) 2004 Alexander Djourik. All rights reserved.
------------------------------------------------------------
Processing file: [01. Whey Hey!.wav]
------------------------------------------------------------
This track looks like CDDA with probability 100%
------------------------------------------------------------
Processing file: [02. Good Heavens Evans!.wav]
------------------------------------------------------------
This track looks like CDDA with probability 100%
------------------------------------------------------------
Processing file: [03. Family Affair.wav]
------------------------------------------------------------
This track looks like CDDA with probability 100%
------------------------------------------------------------
Processing file: [04. Children At Play.wav]
------------------------------------------------------------
This track looks like CDDA with probability 99%
------------------------------------------------------------
Processing file: [05. Dancing Damon.wav]
------------------------------------------------------------
This track looks like CDDA with probability 100%
------------------------------------------------------------
Final Conclusion:
------------------------------------------------------------
These tracks looks like CDDA with probability 100%
Доп. информация:
 
Album Info & AAJ Review
Tracks 1, 2: Studio recording - London, February 1975
Track 3: Studio recording - London, 1976
Track 4: Studio recording - London, November 1977
Track 5: Concert recording - London ICA, August 15th 1976
Such is the nature of the reviewing game that some reviews just flow out, taking the perennial word count with it. This is usually because the force of life running through the music under discussion is vibrant enough to make it so, and Full Steam Ahead is a case in point.
If the notion that the 15 years between 1965 and 1980—as arbitrary as that period may seem just like any other—amount to the most fertile period in British jazz to date, then this release underpins it in no small measure. The participation of South Africans such as bassist Harry Miller, trumpeter Mongezi Feza and drummer Louis Moholo-Moholo, all of whom are present here, lent something vibrant to that scene too, as this collection of tracks caught at various times in the 1970s testifies. Isipingo was a blowing outfit in a number of senses, and the band's music was always a simultaneously tight but loose mixture that musicians often talk and dream about but very infrequently capture.
Here, the opening "Whey Hey!" and following "Good Heavens, Evans!" nail that one from the start. Feza and alto saxophonist Mike Osborne, both of whom are sadly no longer with us, always came to do more than play, and they prove it here with their own heady mixtures of fire and skill. The latter manifests itself in the way they show their command of tension-and-release, borne aloft as their efforts are by the downright extraordinary accompaniment of Stan Tracey, whose pianistic approach is sufficiently different to that of the band's regular pianist, Keith Tippett, as to suggest an entire alternative blueprint for working in such a potentially volcanic setting.
"Family Affair," on which Tippett does appear, is clearly a rambunctious affair of like-minded souls, and the point is emphasized by his expansive solo over Moholo's hyperactive snare drum. Trombonist Malcolm Griffiths is an approximate amalgam of Bill Harris and Roswell Rudd, appearing to look both forwards and backwards at the same time. Osborne, as was his way by this time, starts from a point a great many musicians spend twenty minutes trying to locate.
"Children At Play" is an apt title for too many reasons to discuss, especially as it emphasizes that this music can reflect a fundamental joy of life. That is, of course, something in itself. It's the best kind of realization to know that these guys could summon it up so easily, even in the face of life's adversities.
 
Состав
Alto Saxophone – Mike Osborne
Bass, Composed By – Harry Miller
Drums – Louis Moholo
Piano – Frank Roberts (tracks: 4), Keith Tippett (tracks: 3, 5), Stan Tracey (tracks: 1, 2)
Trombone – Malcolm Griffiths (tracks: 3, 4), Nick Evans (tracks: 1, 2), Paul Neiman (tracks: 5)
Trumpet – Mark Charig (tracks: 3 to 5)
Trumpet [Pocket Trumpet] – Mongezi Feza (tracks: 1, 2)
Any questions -> support@pro-jazz.com. По всем вопросам пишите -> support@pro-jazz.com
18:44
169
Нет комментариев. Ваш будет первым!