Вы используете незарегистрированную версию компонента "Вкладки"!

Поиск

(Avant-Garde, Modern Composition) Elliott Sharp - Spectropia Suite - 2010, FLAC (tracks+.cue), lossless

(Avant-Garde, Modern Composition) Elliott Sharp - Spectropia Suite - 2010, FLAC (tracks+.cue), lossless
Треклист:
Elliott Sharp / Spectropia Suite
Жанр: Avant-Garde, Modern Composition
Страна-производитель диска: Germany
Год издания: 2010
Издатель (лейбл): NEOS Music GmbH
Номер по каталогу: NEOS 40905
Страна: US
Аудиокодек: FLAC (*.flac)
Тип рипа: tracks+.cue
Битрейт аудио: lossless
Продолжительность: 59:20
Источник (релизер): свой фирменный диск
Наличие сканов в содержимом раздачи:
Треклист:
1. Spectropia Overture 3:42
2. Folding 4:34
3. Now And Then 2:05
4. Records Room 1:21
5. What Is When? 3:47
6. Crossed Lines 0:32
7. This Time That Place 3:43
8. Somewhen 2:46
9. Then Again 1:43
10. Ostinato & Decay 3:11
11. Place & Time 2:33
12. Stairway To When 3:40
13. Sally Random 3:08
14. Spectronia 1:38
15. Unfolding 1:59
16. XYZ Theme 1:41
17. Regulator 3:46
18. Bubbleburst 4:33
19. This Place That Time 2:34
20. Crashing 3:06
21. Mutanic 1:00
22. Chaos Ball 2:18
 
Лог создания рипа
Exact Audio Copy V1.0 beta 3 from 29. August 2011
EAC extraction logfile from 30. September 2013, 22:15
Elliott Sharp / Spectropia Suite
Used drive : TSSTcorpCDDVDW SH-222AB Adapter: 1 ID: 0
Read mode : Secure
Utilize accurate stream : Yes
Defeat audio cache : Yes
Make use of C2 pointers : No
Read offset correction : 6
Overread into Lead-In and Lead-Out : No
Fill up missing offset samples with silence : Yes
Delete leading and trailing silent blocks : No
Null samples used in CRC calculations : Yes
Used interface : Installed external ASPI interface
Gap handling : Appended to previous track
Used output format : User Defined Encoder
Selected bitrate : 896 kBit/s
Quality : High
Add ID3 tag : No
Command line compressor : C:\Program Files\Exact Audio Copy\FLAC\FLAC.EXE
Additional command line options : -6 -V -T "ARTIST=%artist%" -T "TITLE=%title%" -T "ALBUM=%albumtitle%" -T "DATE=%year%" -T "TRACKNUMBER=%tracknr%" -T "GENRE=%genre%" -T "COMMENT=%comment%" -T "BAND=%albuminterpret%" -T "COMPOSER=%composer%" %haslyrics%--tag-from-file=LYRICS="%lyricsfile%"%haslyrics% -T "DISCNUMBER=%cdnumber%" -T "TOTALDISCS=%totalcds%" -T "TOTALTRACKS=%numtracks%" %hascover%--picture="%coverfile%"%hascover% %source% -o %dest%
TOC of the extracted CD
Track | Start | Length | Start sector | End sector
---------------------------------------------------------
1 | 0:00.00 | 3:41.67 | 0 | 16641
2 | 3:41.67 | 4:33.45 | 16642 | 37161
3 | 8:15.37 | 2:05.22 | 37162 | 46558
4 | 10:20.59 | 1:21.11 | 46559 | 52644
5 | 11:41.70 | 3:46.50 | 52645 | 69644
6 | 15:28.45 | 0:32.36 | 69645 | 72080
7 | 16:01.06 | 3:43.32 | 72081 | 88837
8 | 19:44.38 | 2:45.59 | 88838 | 101271
9 | 22:30.22 | 1:42.52 | 101272 | 108973
10 | 24:12.74 | 3:11.06 | 108974 | 123304
11 | 27:24.05 | 2:32.45 | 123305 | 134749
12 | 29:56.50 | 3:40.25 | 134750 | 151274
13 | 33:37.00 | 3:08.06 | 151275 | 165380
14 | 36:45.06 | 1:38.00 | 165381 | 172730
15 | 38:23.06 | 1:59.24 | 172731 | 181679
16 | 40:22.30 | 1:41.25 | 181680 | 189279
17 | 42:03.55 | 3:46.13 | 189280 | 206242
18 | 45:49.68 | 4:32.46 | 206243 | 226688
19 | 50:22.39 | 2:33.60 | 226689 | 238223
20 | 52:56.24 | 3:05.55 | 238224 | 252153
21 | 56:02.04 | 0:59.69 | 252154 | 256647
22 | 57:01.73 | 2:18.31 | 256648 | 267028
Track 1
Filename D:\zzz\01 - Spectropia Overture.wav
Pre-gap length 0:00:02.00
Peak level 97.6 %
Extraction speed 2.7 X
Track quality 100.0 %
Test CRC 43A8D66E
Copy CRC 43A8D66E
Track not present in AccurateRip database
Copy OK
Track 2
Filename D:\zzz\02 - Folding.wav
Pre-gap length 0:00:02.00
Peak level 86.7 %
Extraction speed 2.8 X
Track quality 100.0 %
Test CRC E2CB8A4B
Copy CRC E2CB8A4B
Track not present in AccurateRip database
Copy OK
Track 3
Filename D:\zzz\03 - Now And Then.wav
Pre-gap length 0:00:02.00
Peak level 79.5 %
Extraction speed 2.4 X
Track quality 100.0 %
Test CRC 8EB70853
Copy CRC 8EB70853
Track not present in AccurateRip database
Copy OK
Track 4
Filename D:\zzz\04 - Records Room.wav
Pre-gap length 0:00:02.00
Peak level 34.8 %
Extraction speed 2.1 X
Track quality 100.0 %
Test CRC D062E151
Copy CRC D062E151
Track not present in AccurateRip database
Copy OK
Track 5
Filename D:\zzz\05 - What Is When.wav
Pre-gap length 0:00:02.00
Peak level 97.6 %
Extraction speed 2.7 X
Track quality 100.0 %
Test CRC E1CF7807
Copy CRC E1CF7807
Track not present in AccurateRip database
Copy OK
Track 6
Filename D:\zzz\06 - Crossed Lines.wav
Pre-gap length 0:00:02.00
Peak level 64.9 %
Extraction speed 1.4 X
Track quality 100.0 %
Test CRC E69C3AB2
Copy CRC E69C3AB2
Track not present in AccurateRip database
Copy OK
Track 7
Filename D:\zzz\07 - This Time That Place.wav
Pre-gap length 0:00:02.00
Peak level 97.6 %
Extraction speed 2.3 X
Track quality 99.9 %
Test CRC AF70BBBC
Copy CRC AF70BBBC
Track not present in AccurateRip database
Copy OK
Track 8
Filename D:\zzz\08 - Somewhen.wav
Pre-gap length 0:00:02.00
Peak level 24.5 %
Extraction speed 2.6 X
Track quality 100.0 %
Test CRC DA2522C8
Copy CRC DA2522C8
Track not present in AccurateRip database
Copy OK
Track 9
Filename D:\zzz\09 - Then Again.wav
Pre-gap length 0:00:02.00
Peak level 97.6 %
Extraction speed 2.3 X
Track quality 100.0 %
Test CRC 58E417F9
Copy CRC 58E417F9
Track not present in AccurateRip database
Copy OK
Track 10
Filename D:\zzz\10 - Ostinato & Decay.wav
Pre-gap length 0:00:02.00
Peak level 20.3 %
Extraction speed 2.6 X
Track quality 100.0 %
Test CRC 1B8A3714
Copy CRC 1B8A3714
Track not present in AccurateRip database
Copy OK
Track 11
Filename D:\zzz\11 - Place & Time.wav
Pre-gap length 0:00:02.00
Peak level 36.9 %
Extraction speed 2.5 X
Track quality 100.0 %
Test CRC 2FBEA289
Copy CRC 2FBEA289
Track not present in AccurateRip database
Copy OK
Track 12
Filename D:\zzz\12 - Stairway To When.wav
Pre-gap length 0:00:02.00
Peak level 74.7 %
Extraction speed 2.7 X
Track quality 100.0 %
Test CRC 4F156F85
Copy CRC 4F156F85
Track not present in AccurateRip database
Copy OK
Track 13
Filename D:\zzz\13 - Sally Random.wav
Pre-gap length 0:00:02.00
Peak level 97.6 %
Extraction speed 2.6 X
Track quality 100.0 %
Test CRC 016859FD
Copy CRC 016859FD
Track not present in AccurateRip database
Copy OK
Track 14
Filename D:\zzz\14 - Spectronia.wav
Pre-gap length 0:00:02.00
Peak level 20.2 %
Extraction speed 2.3 X
Track quality 100.0 %
Test CRC 4DA840A7
Copy CRC 4DA840A7
Track not present in AccurateRip database
Copy OK
Track 15
Filename D:\zzz\15 - Unfolding.wav
Pre-gap length 0:00:02.00
Peak level 64.1 %
Extraction speed 2.4 X
Track quality 100.0 %
Test CRC 2B2676DC
Copy CRC 2B2676DC
Track not present in AccurateRip database
Copy OK
Track 16
Filename D:\zzz\16 - XYZ Theme.wav
Pre-gap length 0:00:02.00
Peak level 27.8 %
Extraction speed 2.3 X
Track quality 100.0 %
Test CRC CC3DDB85
Copy CRC CC3DDB85
Track not present in AccurateRip database
Copy OK
Track 17
Filename D:\zzz\17 - Regulator.wav
Pre-gap length 0:00:02.00
Peak level 97.6 %
Extraction speed 2.7 X
Track quality 100.0 %
Test CRC 0E72EDB0
Copy CRC 0E72EDB0
Track not present in AccurateRip database
Copy OK
Track 18
Filename D:\zzz\18 - Bubbleburst.wav
Pre-gap length 0:00:02.00
Peak level 97.6 %
Extraction speed 2.7 X
Track quality 100.0 %
Test CRC CCEF3F62
Copy CRC CCEF3F62
Track not present in AccurateRip database
Copy OK
Track 19
Filename D:\zzz\19 - This Place That Time.wav
Pre-gap length 0:00:02.00
Peak level 40.9 %
Extraction speed 2.5 X
Track quality 100.0 %
Test CRC 0642E518
Copy CRC 0642E518
Track not present in AccurateRip database
Copy OK
Track 20
Filename D:\zzz\20 - Crashing.wav
Pre-gap length 0:00:02.00
Peak level 97.6 %
Extraction speed 2.6 X
Track quality 100.0 %
Test CRC 6D72DB8F
Copy CRC 6D72DB8F
Track not present in AccurateRip database
Copy OK
Track 21
Filename D:\zzz\21 - Mutanic.wav
Pre-gap length 0:00:02.00
Peak level 37.6 %
Extraction speed 1.9 X
Track quality 100.0 %
Test CRC 5616735C
Copy CRC 5616735C
Track not present in AccurateRip database
Copy OK
Track 22
Filename D:\zzz\22 - Chaos Ball.wav
Pre-gap length 0:00:02.00
Peak level 97.6 %
Extraction speed 2.4 X
Track quality 100.0 %
Test CRC 5B80EEFA
Copy CRC 5B80EEFA
Track not present in AccurateRip database
Copy OK
None of the tracks are present in the AccurateRip database
No errors occurred
End of status report
==== Log checksum 53D7EA716E1EB191FC962AE56B1AE9541DDFCB7B0E1B2FFA654DDCEA6C9C5716 ====
 
Содержание индексной карты (.CUE)
REM GENRE Avant-Garde
REM DATE 2010
REM DISCID 250DE816
REM COMMENT "ExactAudioCopy v1.0b3"
PERFORMER "Elliott Sharp"
TITLE "Spectropia Suite"
FILE "01 - Spectropia Overture.wav" WAVE
TRACK 01 AUDIO
TITLE "Spectropia Overture"
PERFORMER "Elliott Sharp"
INDEX 01 00:00:00
TRACK 02 AUDIO
TITLE "Folding"
PERFORMER "Elliott Sharp"
INDEX 00 03:39:67
FILE "02 - Folding.wav" WAVE
INDEX 01 00:00:00
TRACK 03 AUDIO
TITLE "Now And Then"
PERFORMER "Elliott Sharp"
INDEX 00 04:31:45
FILE "03 - Now And Then.wav" WAVE
INDEX 01 00:00:00
TRACK 04 AUDIO
TITLE "Records Room"
PERFORMER "Elliott Sharp"
INDEX 00 02:03:22
FILE "04 - Records Room.wav" WAVE
INDEX 01 00:00:00
TRACK 05 AUDIO
TITLE "What Is When?"
PERFORMER "Elliott Sharp"
INDEX 00 01:19:11
FILE "05 - What Is When.wav" WAVE
INDEX 01 00:00:00
TRACK 06 AUDIO
TITLE "Crossed Lines"
PERFORMER "Elliott Sharp"
INDEX 00 03:44:50
FILE "06 - Crossed Lines.wav" WAVE
INDEX 01 00:00:00
TRACK 07 AUDIO
TITLE "This Time That Place"
PERFORMER "Elliott Sharp"
INDEX 00 00:30:36
FILE "07 - This Time That Place.wav" WAVE
INDEX 01 00:00:00
TRACK 08 AUDIO
TITLE "Somewhen"
PERFORMER "Elliott Sharp"
INDEX 00 03:41:32
FILE "08 - Somewhen.wav" WAVE
INDEX 01 00:00:00
TRACK 09 AUDIO
TITLE "Then Again"
PERFORMER "Elliott Sharp"
INDEX 00 02:43:59
FILE "09 - Then Again.wav" WAVE
INDEX 01 00:00:00
TRACK 10 AUDIO
TITLE "Ostinato & Decay"
PERFORMER "Elliott Sharp"
INDEX 00 01:40:52
FILE "10 - Ostinato & Decay.wav" WAVE
INDEX 01 00:00:00
TRACK 11 AUDIO
TITLE "Place & Time"
PERFORMER "Elliott Sharp"
INDEX 00 03:09:06
FILE "11 - Place & Time.wav" WAVE
INDEX 01 00:00:00
TRACK 12 AUDIO
TITLE "Stairway To When"
PERFORMER "Elliott Sharp"
INDEX 00 02:30:45
FILE "12 - Stairway To When.wav" WAVE
INDEX 01 00:00:00
TRACK 13 AUDIO
TITLE "Sally Random"
PERFORMER "Elliott Sharp"
INDEX 00 03:38:25
FILE "13 - Sally Random.wav" WAVE
INDEX 01 00:00:00
TRACK 14 AUDIO
TITLE "Spectronia"
PERFORMER "Elliott Sharp"
INDEX 00 03:06:06
FILE "14 - Spectronia.wav" WAVE
INDEX 01 00:00:00
TRACK 15 AUDIO
TITLE "Unfolding"
PERFORMER "Elliott Sharp"
INDEX 00 01:36:00
FILE "15 - Unfolding.wav" WAVE
INDEX 01 00:00:00
TRACK 16 AUDIO
TITLE "XYZ Theme"
PERFORMER "Elliott Sharp"
INDEX 00 01:57:24
FILE "16 - XYZ Theme.wav" WAVE
INDEX 01 00:00:00
TRACK 17 AUDIO
TITLE "Regulator"
PERFORMER "Elliott Sharp"
INDEX 00 01:39:25
FILE "17 - Regulator.wav" WAVE
INDEX 01 00:00:00
TRACK 18 AUDIO
TITLE "Bubbleburst"
PERFORMER "Elliott Sharp"
INDEX 00 03:44:13
FILE "18 - Bubbleburst.wav" WAVE
INDEX 01 00:00:00
TRACK 19 AUDIO
TITLE "This Place That Time"
PERFORMER "Elliott Sharp"
INDEX 00 04:30:46
FILE "19 - This Place That Time.wav" WAVE
INDEX 01 00:00:00
TRACK 20 AUDIO
TITLE "Crashing"
PERFORMER "Elliott Sharp"
INDEX 00 02:31:60
FILE "20 - Crashing.wav" WAVE
INDEX 01 00:00:00
TRACK 21 AUDIO
TITLE "Mutanic"
PERFORMER "Elliott Sharp"
INDEX 00 03:03:55
FILE "21 - Mutanic.wav" WAVE
INDEX 01 00:00:00
TRACK 22 AUDIO
TITLE "Chaos Ball"
PERFORMER "Elliott Sharp"
INDEX 00 00:57:69
FILE "22 - Chaos Ball.wav" WAVE
INDEX 01 00:00:00
 
Лог проверки качества
d:\>d:\aucdtect -d/-m0 d:\zzz\*.wav
auCDtect: CD records authenticity detector, version 0.8.2
Copyright (c) 2004 Oleg Berngardt. All rights reserved.
Copyright (c) 2004 Alexander Djourik. All rights reserved.
------------------------------------------------------------
Processing file: [01. Spectropia Overture.wav]
------------------------------------------------------------
This track looks like CDDA with probability 99%
------------------------------------------------------------
Processing file: [02. Folding.wav]
------------------------------------------------------------
Could not qualify the source of this track.
------------------------------------------------------------
Processing file: [03. Now And Then.wav]
------------------------------------------------------------
This track looks like CDDA with probability 100%
------------------------------------------------------------
Processing file: [04. Records Room.wav]
------------------------------------------------------------
This track looks like CDDA with probability 94%
------------------------------------------------------------
Processing file: [05. What Is When.wav]
------------------------------------------------------------
This track looks like CDDA with probability 99%
------------------------------------------------------------
Processing file: [06. Crossed Lines.wav]
------------------------------------------------------------
This track looks like MPEG with probability 100%
------------------------------------------------------------
Processing file: [07. This Time That Place.wav]
------------------------------------------------------------
This track looks like CDDA with probability 100%
------------------------------------------------------------
Processing file: [08. Somewhen.wav]
------------------------------------------------------------
This track looks like MPEG with probability 100%
------------------------------------------------------------
Processing file: [09. Then Again.wav]
------------------------------------------------------------
This track looks like CDDA with probability 100%
------------------------------------------------------------
Processing file: [10. Ostinato & Decay.wav]
------------------------------------------------------------
This track looks like CDDA with probability 92%
------------------------------------------------------------
Processing file: [11. Place & Time.wav]
------------------------------------------------------------
This track looks like MPEG with probability 95%
------------------------------------------------------------
Processing file: [12. Stairway To When.wav]
------------------------------------------------------------
This track looks like CDDA with probability 43%
------------------------------------------------------------
Processing file: [13. Sally Random.wav]
------------------------------------------------------------
This track looks like CDDA with probability 100%
------------------------------------------------------------
Processing file: [14. Spectronia.wav]
------------------------------------------------------------
This track looks like CDDA with probability 43%
------------------------------------------------------------
Processing file: [15. Unfolding.wav]
------------------------------------------------------------
This track looks like CDDA with probability 86%
------------------------------------------------------------
Processing file: [16. XYZ Theme.wav]
------------------------------------------------------------
This track looks like CDDA with probability 86%
------------------------------------------------------------
Processing file: [17. Regulator.wav]
------------------------------------------------------------
This track looks like CDDA with probability 100%
------------------------------------------------------------
Processing file: [18. Bubbleburst.wav]
------------------------------------------------------------
This track looks like CDDA with probability 100%
------------------------------------------------------------
Processing file: [19. This Place That Time.wav]
------------------------------------------------------------
This track looks like CDDA with probability 85%
------------------------------------------------------------
Processing file: [20. Crashing.wav]
------------------------------------------------------------
This track looks like CDDA with probability 100%
------------------------------------------------------------
Processing file: [21. Mutanic.wav]
------------------------------------------------------------
This track looks like CDDA with probability 100%
------------------------------------------------------------
Processing file: [22. Chaos Ball.wav]
------------------------------------------------------------
This track looks like CDDA with probability 100%
------------------------------------------------------------
Final Conclusion:
------------------------------------------------------------
Could not qualify the source of these tracks.
Доп. информация:
 
SquidsEar Review
The official scrutinizers of Elliott Sharp's activity are used to a lot of things, but imagining the ever-active cyber-head as the originator of a soundtrack for a noir was indeed pretty difficult. Hold your horses, though: Toni Dove's Spectropia is not a standard film, being also — according to E#'s words — "an interactive media event set in a possible England in 2099 and in New York City in 1931 after the stock market crash". Intriguing, to say the least.
Not less interesting is the stab at mixing different idioms in original ways, some of them probably tackled by Sharp for the very first time. Helped by a clutch of past and present collaborators (including, among others, saxophonist Rudresh Mahanthappa, pianist Anthony Coleman, bassist David Hofstra and the Sirius String Quartet), he produced 22 relatively short segments whose stylistic range oscillates between his renowned computerized action, ьber-distorted and typically twisted guitar solos, swinging big bands ("an imagined meeting of the music of Duke Ellington and Edgard Varиse"), and XX century chamber music (the gorgeous "Folding" and "Unfolding", executed by Sirius with soul and brain). The rock ballad "This Time That Place", sung by a Marianne Faithfull-like Debbie Harry — "Heart Of Glass" has never sounded so distant — constitutes the main theme of the opus appearing in various instrumental guises all over the CD. My favorite version is Coleman's jewel for solo piano placed towards the end of the program; however, the beguine-fashioned adaptation ("Then Again"), enriched by Duane Eubanks' trumpet, is equally worthwhile.
Overall, this is a smartly conceived and realized work and an entertaining listen under many aspects. Those fortunate enough to attend the happening will count on a great souvenir to remember the evening, the composer's eclecticism shining bright as always. I'll admit it: while listening to the fast-paced swing of the conclusive "Chaos Ball", this reviewer couldn't resist picturing a suddenly liberated Sharp performing a Charleston act together with the rest of the crew. Fantasies, you know...
 
Состав
The '31 Band
Rudresh Mahanthappa: alto sax
Duane Eubanks: trumpet
Art Baron, Curtis Fowlkes, Steve Swell: trombones
Anthony Coleman: piano
David Hofstra: string bass
Danny Tunick: vibraphone
Don McKenzie: drums
E#: Bb & bass clarinets, tenor saxophone, guitars, computer processing
Sirius String Quartet
Jennifer Choi, Ester Noh: violins
Ron Lawrence: viola
Tomas Ulrich: cello
Debbie Harry: vocals
По всем вопросам пишите личное сообщение пользователю M0p94ok.
18:45
157
Нет комментариев. Ваш будет первым!