Вы используете незарегистрированную версию компонента "Вкладки"!

Поиск

(Free Jazz, Avant-Garde Jazz, FMR) George Burt & Raymond MacDonald Septet feat. Lol Coxhill - The Great Shark Hunt - 2005, FLAC (tracks+.cue), lossless

(Free Jazz, Avant-Garde Jazz, FMR) George Burt & Raymond MacDonald Septet feat. Lol Coxhill - The Great Shark Hunt - 2005, FLAC (tracks+.cue), lossless
Треклист:
George Burt & Raymond MacDonald Septet feat. Lol Coxhill / The Great Shark Hunt
Жанр: Free Jazz, Avant-Garde Jazz, FMR
Страна-производитель диска: UK
Год издания: 2005
Издатель (лейбл): FMR Records
Номер по каталогу: FMRCD165-0305
Страна: UK
Аудиокодек: FLAC (*.flac)
Тип рипа: tracks+.cue
Битрейт аудио: lossless
Продолжительность: 50:23
Источник (релизер): свой фирменный диск
Наличие сканов в содержимом раздачи:
Треклист:
1 Prince Jellyfish & The Rum Diary 10:35
2 Memo From The Sports Desk 10:39
3 GOK 20:05
4 On The Campaign Trail 9:04
 
Лог создания рипа
Exact Audio Copy V1.0 beta 3 from 29. August 2011
EAC extraction logfile from 20. June 2013, 1:13
George Burt / Raymond MacDonald Septet / The Great Shark Hunt
Used drive : PIONEER DVD-RW DVR-115D Adapter: 0 ID: 0
Read mode : Secure
Utilize accurate stream : Yes
Defeat audio cache : Yes
Make use of C2 pointers : No
Read offset correction : 48
Overread into Lead-In and Lead-Out : No
Fill up missing offset samples with silence : Yes
Delete leading and trailing silent blocks : No
Null samples used in CRC calculations : Yes
Used interface : Installed external ASPI interface
Gap handling : Appended to previous track
Used output format : User Defined Encoder
Selected bitrate : 896 kBit/s
Quality : High
Add ID3 tag : No
Command line compressor : C:\Program Files\Exact Audio Copy\FLAC\FLAC.EXE
Additional command line options : -6 -V -T "ARTIST=%artist%" -T "TITLE=%title%" -T "ALBUM=%albumtitle%" -T "DATE=%year%" -T "TRACKNUMBER=%tracknr%" -T "GENRE=%genre%" -T "COMMENT=%comment%" -T "BAND=%albuminterpret%" -T "COMPOSER=%composer%" %haslyrics%--tag-from-file=LYRICS="%lyricsfile%"%haslyrics% -T "DISCNUMBER=%cdnumber%" -T "TOTALDISCS=%totalcds%" -T "TOTALTRACKS=%numtracks%" %hascover%--picture="%coverfile%"%hascover% %source% -o %dest%
TOC of the extracted CD
Track | Start | Length | Start sector | End sector
---------------------------------------------------------
1 | 0:00.00 | 10:34.53 | 0 | 47602
2 | 10:34.53 | 10:39.30 | 47603 | 95557
3 | 21:14.08 | 20:05.33 | 95558 | 185965
4 | 41:19.41 | 9:04.09 | 185966 | 226774
Track 1
Filename D:\zzz\01 - Prince Jellyfish & The Rum Diary.wav
Pre-gap length 0:00:02.00
Peak level 97.7 %
Extraction speed 5.3 X
Track quality 100.0 %
Test CRC 8BF7DCC1
Copy CRC 8BF7DCC1
Track not present in AccurateRip database
Copy OK
Track 2
Filename D:\zzz\02 - Memo From The Sports Desk.wav
Pre-gap length 0:00:02.00
Peak level 97.7 %
Extraction speed 6.1 X
Track quality 99.9 %
Test CRC 5818F747
Copy CRC 5818F747
Track not present in AccurateRip database
Copy OK
Track 3
Filename D:\zzz\03 - GOK.wav
Pre-gap length 0:00:02.00
Peak level 97.7 %
Extraction speed 7.8 X
Track quality 100.0 %
Test CRC C860951B
Copy CRC C860951B
Track not present in AccurateRip database
Copy OK
Track 4
Filename D:\zzz\04 - On The Campaign Trail.wav
Pre-gap length 0:00:02.00
Peak level 97.7 %
Extraction speed 8.4 X
Track quality 100.0 %
Test CRC 5C581337
Copy CRC 5C581337
Track not present in AccurateRip database
Copy OK
None of the tracks are present in the AccurateRip database
No errors occurred
End of status report
==== Log checksum 99A517B5A14C6EA661EC78C2037F02ADCE3DF4337C511C11D5F710FAD93EAD22 ====
 
Содержание индексной карты (.CUE)
REM GENRE "Avant-Garde Jazz"
REM DATE 2005
REM DISCID 300BCF04
REM COMMENT "ExactAudioCopy v1.0b3"
PERFORMER "George Burt / Raymond MacDonald Septet"
TITLE "The Great Shark Hunt"
FILE "01 - Prince Jellyfish & The Rum Diary.wav" WAVE
TRACK 01 AUDIO
TITLE "Prince Jellyfish & The Rum Diary"
PERFORMER "George Burt / Raymond MacDonald Septet"
FLAGS DCP
INDEX 01 00:00:00
TRACK 02 AUDIO
TITLE "Memo From The Sports Desk"
PERFORMER "George Burt / Raymond MacDonald Septet"
FLAGS DCP
INDEX 00 10:32:53
FILE "02 - Memo From The Sports Desk.wav" WAVE
INDEX 01 00:00:00
TRACK 03 AUDIO
TITLE "GOK"
PERFORMER "George Burt / Raymond MacDonald Septet"
FLAGS DCP
INDEX 00 10:37:30
FILE "03 - GOK.wav" WAVE
INDEX 01 00:00:00
TRACK 04 AUDIO
TITLE "On The Campaign Trail"
PERFORMER "George Burt / Raymond MacDonald Septet"
FLAGS DCP
INDEX 00 20:03:33
FILE "04 - On The Campaign Trail.wav" WAVE
INDEX 01 00:00:00
 
Лог проверки качества
d:\>d:\aucdtect -d/-m0 d:\zzz\*.wav
auCDtect: CD records authenticity detector, version 0.8.2
Copyright (c) 2004 Oleg Berngardt. All rights reserved.
Copyright (c) 2004 Alexander Djourik. All rights reserved.
------------------------------------------------------------
Processing file: [01. Prince Jellyfish & The Rum Diary.wav]
------------------------------------------------------------
This track looks like CDDA with probability 100%
------------------------------------------------------------
Processing file: [02. Memo From The Sports Desk.wav]
------------------------------------------------------------
This track looks like CDDA with probability 100%
------------------------------------------------------------
Processing file: [03. GOK.wav]
------------------------------------------------------------
This track looks like CDDA with probability 99%
------------------------------------------------------------
Processing file: [04. On The Campaign Trail.wav]
------------------------------------------------------------
This track looks like CDDA with probability 100%
------------------------------------------------------------
Final Conclusion:
------------------------------------------------------------
These tracks looks like CDDA with probability 100%
Доп. информация:
 
FMR Info
Recorded in East Kilbride Arts Centre, this is the fifth chapter in the celebrated saxophonist Lol Coxhills adventures with Burt and MacDonald. This new recording features the hugely successful pianist Bill Wells along with the presiding genius of The One Ensemble - Daniel Padden, a stalwart of the Glasgow Improvisers Orchestra. Lol plays his bent soprano on this session (like a tiny alto) and features the first ever recorded duet between bandleaders George Burt and Raymond MacDonald.
 
Состав
Alto Saxophone, Soprano Saxophone – Raymond MacDonald
Clarinet, Voice, Percussion – Daniel Padden
Double Bass – George Lyle
Guitar – George Burt
Piano – Bill Wells
Soprano Saxophone – Lol Coxhill
Voice, Melodica – Nicola MacDonald
Any questions -> support@pro-jazz.com. По всем вопросам пишите -> support@pro-jazz.com
15:12
196
Нет комментариев. Ваш будет первым!