Вы используете незарегистрированную версию компонента "Вкладки"!

Поиск

(Avant-Garde Jazz, Free Improvisation) Joseph Jarman - Song For - 1991, FLAC (tracks+.cue), lossless

(Avant-Garde Jazz, Free Improvisation) Joseph Jarman - Song For - 1991, FLAC (tracks+.cue), lossless
Треклист:
♦ Joseph Jarman - Song For ♦
Жанр: Avant-Garde Jazz, Free Improvisation
Страна-производитель диска: Canada
Год издания: 1991
Издатель (лейбл): Delmark
Номер по каталогу: DD-410
Аудиокодек: FLAC (*.flac)
Тип рипа: tracks+.cue
Битрейт аудио: lossless
Продолжительность: 00:51:20
Источник (релизер): Рип с диска.
Наличие сканов в содержимом раздачи: да
Треклист:
01. Little Fox Run [07:04]
02. Non-Cognitive Aspects Of The City [14:01]
03. Adam's Rib [05:58]
04. Song For [13:30]
05. Little Fox Run [10:46]
 
Лог создания рипа
Exact Audio Copy V1.0 beta 3 from 29. August 2011
EAC extraction logfile from 22. June 2013, 23:13
Joseph Jarman / Song For
Used drive : Optiarc DVD RW AD-5200A Adapter: 0 ID: 0
Read mode : Secure
Utilize accurate stream : Yes
Defeat audio cache : Yes
Make use of C2 pointers : No
Read offset correction : 48
Overread into Lead-In and Lead-Out : No
Fill up missing offset samples with silence : Yes
Delete leading and trailing silent blocks : No
Null samples used in CRC calculations : Yes
Used interface : Native Win32 interface for Win NT & 2000
Gap handling : Appended to previous track
Used output format : User Defined Encoder
Selected bitrate : 128 kBit/s
Quality : High
Add ID3 tag : No
Command line compressor : C:\Program Files\Exact Audio Copy\Flac\flac.exe
Additional command line options : -V -8 -T "Genre=%genre%" -T "Artist=%artist%" -T "Title=%title%" -T "Album=%albumtitle%" -T "Date=%year%" -T "Tracknumber=%tracknr%" -T "Comment=%comment%" %source%
TOC of the extracted CD
Track | Start | Length | Start sector | End sector
---------------------------------------------------------
1 | 0:00.00 | 7:04.35 | 0 | 31834
2 | 7:04.35 | 14:01.08 | 31835 | 94917
3 | 21:05.43 | 5:58.07 | 94918 | 121774
4 | 27:03.50 | 13:30.23 | 121775 | 182547
5 | 40:33.73 | 10:46.32 | 182548 | 231029
Track 1
Filename F:\1991.Joseph Jarman - Song For\01. Little Fox Run.wav
Pre-gap length 0:00:02.00
Peak level 100.0 %
Extraction speed 2.5 X
Track quality 100.0 %
Test CRC D18EBFCA
Copy CRC D18EBFCA
Cannot be verified as accurate (confidence 3) [484D2B39], AccurateRip returned [6C09DE5C] (AR v2)
Copy OK
Track 2
Filename F:\1991.Joseph Jarman - Song For\02. Non-Cognitive Aspects Of The City.wav
Pre-gap length 0:00:04.07
Peak level 98.8 %
Extraction speed 3.2 X
Track quality 100.0 %
Test CRC 8D00C6AB
Copy CRC 8D00C6AB
Cannot be verified as accurate (confidence 3) [DBFA37A7], AccurateRip returned [5F3C5B9D] (AR v2)
Copy OK
Track 3
Filename F:\1991.Joseph Jarman - Song For\03. Adam's Rib.wav
Pre-gap length 0:00:04.15
Peak level 98.8 %
Extraction speed 3.4 X
Track quality 100.0 %
Test CRC C9A6F8D9
Copy CRC C9A6F8D9
Cannot be verified as accurate (confidence 3) [FE41E003], AccurateRip returned [B84F3279] (AR v2)
Copy OK
Track 4
Filename F:\1991.Joseph Jarman - Song For\04. Song For.wav
Pre-gap length 0:00:04.15
Peak level 99.5 %
Extraction speed 3.8 X
Track quality 100.0 %
Test CRC 56F5EB5B
Copy CRC 56F5EB5B
Cannot be verified as accurate (confidence 3) [6494C4D9], AccurateRip returned [AF2A9E65] (AR v2)
Copy OK
Track 5
Filename F:\1991.Joseph Jarman - Song For\05. Little Fox Run.wav
Pre-gap length 0:00:03.43
Peak level 95.6 %
Extraction speed 3.6 X
Track quality 99.9 %
Test CRC 497CF656
Copy CRC 497CF656
Cannot be verified as accurate (confidence 3) [3B38E594], AccurateRip returned [D61F643E] (AR v2)
Copy OK
No tracks could be verified as accurate
You may have a different pressing from the one(s) in the database
No errors occurred
End of status report
==== Log checksum DBDDCBC02F1F90C24D613DA949770ADF6F05F241901041424EF5FE7088D20DBD ====
 
Содержание индексной карты (.CUE)
REM GENRE Jazz
REM DATE 1991
REM DISCID 3A0C0805
REM COMMENT "ExactAudioCopy v1.0b3"
PERFORMER "Joseph Jarman"
TITLE "Song For"
FILE "01. Little Fox Run.wav" WAVE
TRACK 01 AUDIO
TITLE "Little Fox Run"
PERFORMER "Joseph Jarman"
INDEX 01 00:00:00
TRACK 02 AUDIO
TITLE "Non-Cognitive Aspects Of The City"
PERFORMER "Joseph Jarman"
INDEX 00 07:00:28
FILE "02. Non-Cognitive Aspects Of The City.wav" WAVE
INDEX 01 00:00:00
TRACK 03 AUDIO
TITLE "Adam's Rib"
PERFORMER "Joseph Jarman"
INDEX 00 13:56:68
FILE "03. Adam's Rib.wav" WAVE
INDEX 01 00:00:00
TRACK 04 AUDIO
TITLE "Song For"
PERFORMER "Joseph Jarman"
INDEX 00 05:53:67
FILE "04. Song For.wav" WAVE
INDEX 01 00:00:00
TRACK 05 AUDIO
TITLE "Little Fox Run"
PERFORMER "Joseph Jarman"
INDEX 00 13:26:55
FILE "05. Little Fox Run.wav" WAVE
INDEX 01 00:00:00
 
Состав
Personnel:
Joseph Jarman - as, recitation
Billy Brimfield - tp
Charles Clark - b
Christopher Gaddy - p, marimba
Fred Anderson - ts
Steve McCall - dr
Thurman Barker - dr
Any questions -> support@pro-jazz.com. По всем вопросам пишите -> support@pro-jazz.com
15:12
366
Нет комментариев. Ваш будет первым!