Поиск

(Free Jazz, Avant-Garde Jazz, FMR) [CD] Tony Bianco's Utoma Quartet (w/ Mike Fletcher, Mark Hanslip, Colin Somervell) - Tony Bianco's Utoma Quartet - 2014, FLAC (tracks+.cue), lossless

(Free Jazz, Avant-Garde Jazz, FMR) [CD] Tony Bianco's Utoma Quartet (w/ Mike Fletcher, Mark Hanslip, Colin Somervell) - Tony Bianco's Utoma Quartet - 2014, FLAC (tracks+.cue), lossless
Треклист:
Tony Bianco's Utoma Quartet / Tony Bianco's Utoma Quartet
Жанр: Free Jazz, Avant-Garde Jazz, FMR
Носитель: CD
Страна-производитель диска (релиза): UK
Год издания: 2014
Издатель (лейбл): FMR Records
Номер по каталогу: FMRCD368-0214
Страна исполнителя (группы): UK
Аудиокодек: FLAC (*.flac)
Тип рипа: tracks+.cue
Битрейт аудио: lossless
Продолжительность: 50:23
Источник (релизер): свой фирменный диск
Наличие сканов в содержимом раздачи:
Треклист:
1. Ninja
2. Gopi Dance
3. Jonah
4. Utoma
5. Goodbye My Fellow Soldier
6. Sea
 
Лог создания рипа
Exact Audio Copy V1.0 beta 3 from 29. August 2011
EAC extraction logfile from 24. November 2014, 19:43
Tony Bianco's Utoma Quartet / Tony Bianco's Utoma Quartet
Used drive : PIONEER DVD-RW DVR-115D Adapter: 0 ID: 0
Read mode : Secure
Utilize accurate stream : Yes
Defeat audio cache : Yes
Make use of C2 pointers : No
Read offset correction : 48
Overread into Lead-In and Lead-Out : No
Fill up missing offset samples with silence : Yes
Delete leading and trailing silent blocks : No
Null samples used in CRC calculations : Yes
Used interface : Installed external ASPI interface
Gap handling : Appended to previous track
Used output format : User Defined Encoder
Selected bitrate : 768 kBit/s
Quality : High
Add ID3 tag : No
Command line compressor : C:\Program Files\Exact Audio Copy\Flac\flac.exe
Additional command line options : -6 -V -T "ARTIST=%artist%" -T "TITLE=%title%" -T "ALBUM=%albumtitle%" -T "DATE=%year%" -T "TRACKNUMBER=%tracknr%" -T "GENRE=%genre%" -T "COMMENT=%comment%" -T "BAND=%albuminterpret%" -T "COMPOSER=%composer%" %haslyrics%--tag-from-file=LYRICS="%lyricsfile%"%haslyrics% -T "DISCNUMBER=%cdnumber%" -T "TOTALDISCS=%totalcds%" -T "TOTALTRACKS=%numtracks%" %hascover%--picture="%coverfile%"%hascover% %source% -o %dest%
TOC of the extracted CD
Track | Start | Length | Start sector | End sector
---------------------------------------------------------
1 | 0:00.00 | 7:00.29 | 0 | 31528
2 | 7:00.29 | 11:24.15 | 31529 | 82843
3 | 18:24.44 | 8:47.19 | 82844 | 122387
4 | 27:11.63 | 8:50.61 | 122388 | 162198
5 | 36:02.49 | 5:56.33 | 162199 | 188931
6 | 41:59.07 | 8:23.47 | 188932 | 226703
Track 1
Filename D:\zzz\01 - Ninja.wav
Pre-gap length 0:00:02.00
Peak level 99.8 %
Extraction speed 5.0 X
Track quality 100.0 %
Test CRC E5708AA8
Copy CRC E5708AA8
Track not present in AccurateRip database
Copy OK
Track 2
Filename D:\zzz\02 - Gopi Dance.wav
Pre-gap length 0:00:04.00
Peak level 99.8 %
Extraction speed 6.2 X
Track quality 100.0 %
Test CRC 1B4AC43D
Copy CRC 1B4AC43D
Track not present in AccurateRip database
Copy OK
Track 3
Filename D:\zzz\03 - Jonah.wav
Pre-gap length 0:00:04.00
Peak level 99.8 %
Extraction speed 6.9 X
Track quality 100.0 %
Test CRC F9F63338
Copy CRC F9F63338
Track not present in AccurateRip database
Copy OK
Track 4
Filename D:\zzz\04 - Utoma.wav
Pre-gap length 0:00:04.00
Peak level 99.8 %
Extraction speed 7.6 X
Track quality 100.0 %
Test CRC DF0F6CE3
Copy CRC DF0F6CE3
Track not present in AccurateRip database
Copy OK
Track 5
Filename D:\zzz\05 - Goodbye My Fellow Soldier.wav
Pre-gap length 0:00:04.00
Peak level 99.8 %
Extraction speed 7.8 X
Track quality 100.0 %
Test CRC C65A9C62
Copy CRC C65A9C62
Track not present in AccurateRip database
Copy OK
Track 6
Filename D:\zzz\06 - Sea.wav
Pre-gap length 0:00:04.00
Peak level 99.8 %
Extraction speed 7.9 X
Track quality 99.9 %
Test CRC 653B389B
Copy CRC 653B389B
Track not present in AccurateRip database
Copy OK
None of the tracks are present in the AccurateRip database
No errors occurred
End of status report
==== Log checksum 388EFE550E62B8DFF4496F5358EB4CE9814EDBDD9F7BA864BDF6EBC13F05C9FB ====
 
Содержание индексной карты (.CUE)
REM GENRE "Free Jazz"
REM DATE 2014
REM DISCID 360BCE06
REM COMMENT "ExactAudioCopy v1.0b3"
PERFORMER "Tony Bianco's Utoma Quartet"
TITLE "Tony Bianco's Utoma Quartet"
FILE "01 - Ninja.wav" WAVE
TRACK 01 AUDIO
TITLE "Ninja"
PERFORMER "Tony Bianco's Utoma Quartet"
INDEX 01 00:00:00
TRACK 02 AUDIO
TITLE "Gopi Dance"
PERFORMER "Tony Bianco's Utoma Quartet"
INDEX 00 06:56:29
FILE "02 - Gopi Dance.wav" WAVE
INDEX 01 00:00:00
TRACK 03 AUDIO
TITLE "Jonah"
PERFORMER "Tony Bianco's Utoma Quartet"
INDEX 00 11:20:15
FILE "03 - Jonah.wav" WAVE
INDEX 01 00:00:00
TRACK 04 AUDIO
TITLE "Utoma"
PERFORMER "Tony Bianco's Utoma Quartet"
INDEX 00 08:43:19
FILE "04 - Utoma.wav" WAVE
INDEX 01 00:00:00
TRACK 05 AUDIO
TITLE "Goodbye My Fellow Soldier"
PERFORMER "Tony Bianco's Utoma Quartet"
INDEX 00 08:46:61
FILE "05 - Goodbye My Fellow Soldier.wav" WAVE
INDEX 01 00:00:00
TRACK 06 AUDIO
TITLE "Sea"
PERFORMER "Tony Bianco's Utoma Quartet"
INDEX 00 05:52:33
FILE "06 - Sea.wav" WAVE
INDEX 01 00:00:00
 
Лог проверки качества
d:\>d:\aucdtect -d/-m0 d:\zzz\*.wav
auCDtect: CD records authenticity detector, version 0.8.2
Copyright (c) 2004 Oleg Berngardt. All rights reserved.
Copyright (c) 2004 Alexander Djourik. All rights reserved.
------------------------------------------------------------
Processing file: [01. Ninja.wav]
------------------------------------------------------------
This track looks like CDDA with probability 99%
------------------------------------------------------------
Processing file: [02. Gopi Dance.wav]
------------------------------------------------------------
This track looks like CDDA with probability 100%
------------------------------------------------------------
Processing file: [03. Jonah.wav]
------------------------------------------------------------
This track looks like CDDA with probability 100%
------------------------------------------------------------
Processing file: [04. Utoma.wav]
------------------------------------------------------------
This track looks like CDDA with probability 100%
------------------------------------------------------------
Processing file: [05. Goodbye My Fellow Soldier.wav]
------------------------------------------------------------
This track looks like CDDA with probability 99%
------------------------------------------------------------
Processing file: [06. Sea.wav]
------------------------------------------------------------
This track looks like CDDA with probability 99%
------------------------------------------------------------
Final Conclusion:
------------------------------------------------------------
These tracks looks like CDDA with probability 100%
Доп. информация:
 
Album Info & Review
All music by Tony Bianco
Liner notes: Tony Bianco
Tony Bianco on drums & compositions with Mike Fletcher on alto sax & flute, Mark Hanslip on tenor sax, Colin Somervell on bass. Tony Bianco is a great drummer who has worked with Paul Dunmall, Dave Liebman and Elton Dean on some two dozen discs. Mr. Bianco does have another quartet disc out on the 33Jazz label but it has completely different personnel. I don't know much about the other members of this quartet although Mr. Hanslip and Somervell can be found on a few other discs for the FMR label. Bianco does mention in the liner notes that he first met these men as students when doing a workshop at the Birmingham Conservatory. He also says that this quartet was inspired a certain Elvin Jones band which featured two saxists: Dave Liebman and Steve Grossman. On the opening song, "Ninja", the Utoma Quartet have their own sound, slightly funky with both saxes playing circular lines around one another in tightly. Mr. Bianco plays like Elvin on "Gopi Dance", quietly spinning a mesmerizing web around his quartet until the reeds (flute & tenor) start playing those warm, floating harmonies. I dig the way both saxists those superb flowing lines rarely breaking a sweat. Both saxists are strong, inspired players and take a number of fine solos when they get their turn. What makes this disc special is the masterful drumming of Tony Bianco who does an amazing job of keeping things centered while spinning layers of lines keep each member connected. Mr. Bianco's inventive writing also keeps this quartet on their toes with odd twists and turns when least expected. - Bruce Lee Gallanter, DMG
 
Состав
Mike Fletcher: alto saxophone and flute
Mark Hanslip: tenor saxophone
Colin Somervell: bass
Tony Bianco: drums
По всем вопросам пишите личное сообщение пользователю M0p94ok.
08:34
145
Нет комментариев. Ваш будет первым!