Вы используете незарегистрированную версию компонента "Вкладки"!

Поиск

(Avant-Garde Jazz, Chamber Music, FMR) [CD] Natura Morta (Frantz Loriot, Sean Ali, Carlo Costa) - Natura Morta - 2013, FLAC (tracks+.cue), lossless

(Avant-Garde Jazz, Chamber Music, FMR) [CD] Natura Morta (Frantz Loriot, Sean Ali, Carlo Costa) - Natura Morta - 2013, FLAC (tracks+.cue), lossless
Треклист:
Natura Morta / Natura Morta
Жанр: Avant-Garde Jazz, Chamber Music, FMR
Носитель: CD
Страна-производитель диска (релиза): UK
Год издания: 2013
Издатель (лейбл): FMR Records
Номер по каталогу: FMRCD361-0914
Страна исполнителя (группы): International
Аудиокодек: FLAC (*.flac)
Тип рипа: tracks+.cue
Битрейт аудио: lossless
Продолжительность: 43:44
Источник (релизер): свой фирменный диск
Наличие сканов в содержимом раздачи:
Треклист:
1. Sirens 7:10
2. Miasmata 11:47
3. The Burial Of Memories 18:38
4. As The Dawn Fades 6:10
 
Лог создания рипа
Exact Audio Copy V1.0 beta 3 from 29. August 2011
EAC extraction logfile from 23. November 2014, 13:40
Natura Morta / Decay
Used drive : PIONEER DVD-RW DVR-115D Adapter: 0 ID: 0
Read mode : Secure
Utilize accurate stream : Yes
Defeat audio cache : Yes
Make use of C2 pointers : No
Read offset correction : 48
Overread into Lead-In and Lead-Out : No
Fill up missing offset samples with silence : Yes
Delete leading and trailing silent blocks : No
Null samples used in CRC calculations : Yes
Used interface : Installed external ASPI interface
Gap handling : Appended to previous track
Used output format : User Defined Encoder
Selected bitrate : 768 kBit/s
Quality : High
Add ID3 tag : No
Command line compressor : C:\Program Files\Exact Audio Copy\Flac\flac.exe
Additional command line options : -6 -V -T "ARTIST=%artist%" -T "TITLE=%title%" -T "ALBUM=%albumtitle%" -T "DATE=%year%" -T "TRACKNUMBER=%tracknr%" -T "GENRE=%genre%" -T "COMMENT=%comment%" -T "BAND=%albuminterpret%" -T "COMPOSER=%composer%" %haslyrics%--tag-from-file=LYRICS="%lyricsfile%"%haslyrics% -T "DISCNUMBER=%cdnumber%" -T "TOTALDISCS=%totalcds%" -T "TOTALTRACKS=%numtracks%" %hascover%--picture="%coverfile%"%hascover% %source% -o %dest%
TOC of the extracted CD
Track | Start | Length | Start sector | End sector
---------------------------------------------------------
1 | 0:00.00 | 7:09.57 | 0 | 32231
2 | 7:09.57 | 11:46.74 | 32232 | 85255
3 | 18:56.56 | 18:37.48 | 85256 | 169078
4 | 37:34.29 | 6:10.00 | 169079 | 196828
Track 1
Filename D:\zzz\01 - Sirens.wav
Pre-gap length 0:00:02.00
Peak level 99.9 %
Extraction speed 5.0 X
Track quality 100.0 %
Test CRC 8AF910F6
Copy CRC 8AF910F6
Track not present in AccurateRip database
Copy OK
Track 2
Filename D:\zzz\02 - Miasmata.wav
Peak level 100.0 %
Extraction speed 6.2 X
Track quality 100.0 %
Test CRC 8B8BB2A0
Copy CRC 8B8BB2A0
Track not present in AccurateRip database
Copy OK
Track 3
Filename D:\zzz\03 - The Burial Of Memories.wav
Peak level 100.0 %
Extraction speed 7.6 X
Track quality 100.0 %
Test CRC 05828C43
Copy CRC 05828C43
Track not present in AccurateRip database
Copy OK
Track 4
Filename D:\zzz\04 - As The Dawn Fades.wav
Peak level 100.0 %
Extraction speed 7.9 X
Track quality 100.0 %
Test CRC B8D72480
Copy CRC B8D72480
Track not present in AccurateRip database
Copy OK
None of the tracks are present in the AccurateRip database
No errors occurred
End of status report
==== Log checksum 014DAC10A92C308915851A624D84C3D4605CD177D3F3474256AB7BB9A3DF319C ====
 
Содержание индексной карты (.CUE)
REM GENRE "Free Improvisation"
REM DATE 2013
REM DISCID 260A4004
REM COMMENT "ExactAudioCopy v1.0b3"
PERFORMER "Natura Morta"
TITLE "Decay"
FILE "01 - Sirens.wav" WAVE
TRACK 01 AUDIO
TITLE "Sirens"
PERFORMER "Natura Morta"
FLAGS DCP
INDEX 01 00:00:00
FILE "02 - Miasmata.wav" WAVE
TRACK 02 AUDIO
TITLE "Miasmata"
PERFORMER "Natura Morta"
FLAGS DCP
INDEX 01 00:00:00
FILE "03 - The Burial Of Memories.wav" WAVE
TRACK 03 AUDIO
TITLE "The Burial Of Memories"
PERFORMER "Natura Morta"
FLAGS DCP
INDEX 01 00:00:00
FILE "04 - As The Dawn Fades.wav" WAVE
TRACK 04 AUDIO
TITLE "As The Dawn Fades"
PERFORMER "Natura Morta"
FLAGS DCP
INDEX 01 00:00:00
 
Лог проверки качества
d:\>d:\aucdtect -d/-m0 d:\zzz\*.wav
auCDtect: CD records authenticity detector, version 0.8.2
Copyright (c) 2004 Oleg Berngardt. All rights reserved.
Copyright (c) 2004 Alexander Djourik. All rights reserved.
------------------------------------------------------------
Processing file: [01. Sirens.wav]
------------------------------------------------------------
This track looks like CDDA with probability 100%
------------------------------------------------------------
Processing file: [02. Miasmata.wav]
------------------------------------------------------------
This track looks like CDDA with probability 100%
------------------------------------------------------------
Processing file: [03. The Burial Of Memories.wav]
------------------------------------------------------------
This track looks like CDDA with probability 100%
------------------------------------------------------------
Processing file: [04. As The Dawn Fades.wav]
------------------------------------------------------------
This track looks like MPEG with probability 100%
------------------------------------------------------------
Final Conclusion:
------------------------------------------------------------
Could not qualify the source of these tracks.
Доп. информация:
 
Album Info & Review
All compositions by Natura Morta
Recorded by Aaron Nevezie at the Bunker Studios, Brooklyn on March 30th, 2012
Mixed by Ryan Ferreira
Mastered by Jon Rosenberg
Cover drawing by Jacques Mandelbrojt
"Nothing beside remains. Round the decay
Of that colossal wreck, boundless and bare
The lone and level sands stretch far away." - Percy Bysshe Shelley, "Ozymandias"
After their self-titled debut, this is Natura Morta's second CD, again with the same trio of Frantz Loriot on viola, Sean Ali on double bass and Carlo Costa on percussion. In a way, they perfect their approach: stretched sounds on the strings are supported by sparse percussive interaction.
You can only say this: it is intense, very intense, hypnotic even at moments and utterly strange, beautiful, horrifying and compelling. The trio's great quality is the incredible amount of restraint demonstrated to conjure up a vast atmosphere of desolation. It is fascinating to hear completely improvised pieces that are so coherent. - Stef, freejazzblog.org
 
Состав
Frantz Loriot: viola, objects
Sean Ali: contrabass, objects
Carlo Costa: drums, percussion
По всем вопросам пишите личное сообщение пользователю M0p94ok.
08:33
136
Нет комментариев. Ваш будет первым!