Вы используете незарегистрированную версию компонента "Вкладки"!

Поиск

(Free Jazz, Avant-Garde Jazz, FMR) [CD] Georg Graewe, Kent Kessler, Hamid Drake - For Trio (16 Fantasiestucke) - 2004, FLAC (tracks+.cue), lossless

(Free Jazz, Avant-Garde Jazz, FMR) [CD] Georg Graewe, Kent Kessler, Hamid Drake - For Trio (16 Fantasiestucke) - 2004, FLAC (tracks+.cue), lossless
Треклист:
Georg Graewe, Kent Kessler, Hamid Drake / For Trio (16 Fantasiestucke)
Жанр: Free Jazz, Avant-Garde Jazz, FMR
Носитель: CD
Страна-производитель диска (релиза): UK
Год издания: 2004
Издатель (лейбл): FMR Records
Номер по каталогу: FMRCD153-i0704
Страна исполнителя (группы): Germany, US
Аудиокодек: FLAC (*.flac)
Тип рипа: tracks+.cue
Битрейт аудио: lossless
Продолжительность: 56:32
Источник (релизер): свой фирменный диск
Наличие сканов в содержимом раздачи:
Треклист:
1. Fantasiestucke I
2. Fantasiestucke II
3. Fantasiestucke III
4. Fantasiestucke IV
5. Fantasiestucke XIV
6. Fantasiestucke XI
7. Fantasiestucke XII
8. Fantasiestucke XIII
9. Fantasiestucke V
10. Fantasiestucke VI
11. Fantasiestucke XV
12. Fantasiestucke VIII
13. Fantasiestucke IX
14. Fantasiestucke X
15. Fantasiestucke XVI
16. Fantasiestucke XVII
 
Лог создания рипа
Exact Audio Copy V1.0 beta 3 from 29. August 2011
EAC extraction logfile from 11. November 2014, 23:42
Georg Graewe, Kent Kessler, Hamid Drake / For Trio (16 Fantasiestucke)
Used drive : TSSTcorpCDDVDW SH-222AB Adapter: 1 ID: 0
Read mode : Secure
Utilize accurate stream : Yes
Defeat audio cache : Yes
Make use of C2 pointers : No
Read offset correction : 6
Overread into Lead-In and Lead-Out : No
Fill up missing offset samples with silence : Yes
Delete leading and trailing silent blocks : No
Null samples used in CRC calculations : Yes
Used interface : Installed external ASPI interface
Gap handling : Appended to previous track
Used output format : User Defined Encoder
Selected bitrate : 768 kBit/s
Quality : High
Add ID3 tag : No
Command line compressor : C:\Program Files\Exact Audio Copy\Flac\flac.exe
Additional command line options : -6 -V -T "ARTIST=%artist%" -T "TITLE=%title%" -T "ALBUM=%albumtitle%" -T "DATE=%year%" -T "TRACKNUMBER=%tracknr%" -T "GENRE=%genre%" -T "COMMENT=%comment%" -T "BAND=%albuminterpret%" -T "COMPOSER=%composer%" %haslyrics%--tag-from-file=LYRICS="%lyricsfile%"%haslyrics% -T "DISCNUMBER=%cdnumber%" -T "TOTALDISCS=%totalcds%" -T "TOTALTRACKS=%numtracks%" %hascover%--picture="%coverfile%"%hascover% %source% -o %dest%
TOC of the extracted CD
Track | Start | Length | Start sector | End sector
---------------------------------------------------------
1 | 0:00.00 | 1:56.38 | 0 | 8737
2 | 1:56.38 | 3:43.55 | 8738 | 25517
3 | 5:40.18 | 2:49.67 | 25518 | 38259
4 | 8:30.10 | 3:15.29 | 38260 | 52913
5 | 11:45.39 | 2:54.27 | 52914 | 65990
6 | 14:39.66 | 4:16.70 | 65991 | 85260
7 | 18:56.61 | 2:57.28 | 85261 | 98563
8 | 21:54.14 | 2:34.52 | 98564 | 110165
9 | 24:28.66 | 7:34.41 | 110166 | 144256
10 | 32:03.32 | 4:05.72 | 144257 | 162703
11 | 36:09.29 | 2:39.32 | 162704 | 174660
12 | 38:48.61 | 3:33.06 | 174661 | 190641
13 | 42:21.67 | 7:57.37 | 190642 | 226453
14 | 50:19.29 | 1:50.29 | 226454 | 234732
15 | 52:09.58 | 1:48.19 | 234733 | 242851
16 | 53:58.02 | 2:33.42 | 242852 | 254368
Track 1
Filename D:\zzz\01 - Fantasiestucke I.wav
Pre-gap length 0:00:02.00
Peak level 70.5 %
Extraction speed 3.1 X
Track quality 99.9 %
Test CRC BC70AE24
Copy CRC BC70AE24
Accurately ripped (confidence 1) [5C54FA34] (AR v1)
Copy OK
Track 2
Filename D:\zzz\02 - Fantasiestucke II.wav
Pre-gap length 0:00:02.00
Peak level 80.5 %
Extraction speed 4.1 X
Track quality 99.9 %
Test CRC 4E806AD8
Copy CRC 4E806AD8
Accurately ripped (confidence 1) [66ED2859] (AR v1)
Copy OK
Track 3
Filename D:\zzz\03 - Fantasiestucke III.wav
Pre-gap length 0:00:02.00
Peak level 68.0 %
Extraction speed 4.8 X
Track quality 100.0 %
Test CRC 3B9D6F31
Copy CRC 3B9D6F31
Accurately ripped (confidence 1) [A190666C] (AR v1)
Copy OK
Track 4
Filename D:\zzz\04 - Fantasiestucke IV.wav
Pre-gap length 0:00:02.00
Peak level 92.1 %
Extraction speed 5.2 X
Track quality 100.0 %
Test CRC D942E680
Copy CRC D942E680
Accurately ripped (confidence 1) [CF2B0C69] (AR v1)
Copy OK
Track 5
Filename D:\zzz\05 - Fantasiestucke XIV.wav
Pre-gap length 0:00:02.00
Peak level 98.2 %
Extraction speed 5.4 X
Track quality 100.0 %
Test CRC F9339177
Copy CRC F9339177
Accurately ripped (confidence 1) [4626781C] (AR v1)
Copy OK
Track 6
Filename D:\zzz\06 - Fantasiestucke XI.wav
Pre-gap length 0:00:02.00
Peak level 93.6 %
Extraction speed 5.4 X
Track quality 99.9 %
Test CRC 101451A3
Copy CRC 101451A3
Accurately ripped (confidence 1) [2B87F2A5] (AR v1)
Copy OK
Track 7
Filename D:\zzz\07 - Fantasiestucke XII.wav
Pre-gap length 0:00:02.00
Peak level 29.9 %
Extraction speed 6.0 X
Track quality 100.0 %
Test CRC F29E890B
Copy CRC F29E890B
Accurately ripped (confidence 1) [41E57952] (AR v1)
Copy OK
Track 8
Filename D:\zzz\08 - Fantasiestucke XIII.wav
Pre-gap length 0:00:02.00
Peak level 76.4 %
Extraction speed 5.0 X
Track quality 99.9 %
Test CRC 92E3F932
Copy CRC 92E3F932
Accurately ripped (confidence 1) [96476D3C] (AR v1)
Copy OK
Track 9
Filename D:\zzz\09 - Fantasiestucke V.wav
Pre-gap length 0:00:02.00
Peak level 94.7 %
Extraction speed 7.3 X
Track quality 100.0 %
Test CRC 64E7EFBC
Copy CRC 64E7EFBC
Accurately ripped (confidence 1) [6B30B7FB] (AR v1)
Copy OK
Track 10
Filename D:\zzz\10 - Fantasiestucke VI.wav
Pre-gap length 0:00:02.00
Peak level 93.2 %
Extraction speed 7.2 X
Track quality 100.0 %
Test CRC 58A8C1A9
Copy CRC 58A8C1A9
Accurately ripped (confidence 1) [92E11702] (AR v1)
Copy OK
Track 11
Filename D:\zzz\11 - Fantasiestucke XV.wav
Pre-gap length 0:00:02.00
Peak level 79.7 %
Extraction speed 7.0 X
Track quality 100.0 %
Test CRC 34C7CCD0
Copy CRC 34C7CCD0
Accurately ripped (confidence 1) [30C15415] (AR v1)
Copy OK
Track 12
Filename D:\zzz\12 - Fantasiestucke VIII.wav
Pre-gap length 0:00:02.00
Peak level 88.4 %
Extraction speed 7.5 X
Track quality 100.0 %
Test CRC EE945615
Copy CRC EE945615
Accurately ripped (confidence 1) [D1C27E89] (AR v1)
Copy OK
Track 13
Filename D:\zzz\13 - Fantasiestucke IX.wav
Pre-gap length 0:00:02.00
Peak level 94.7 %
Extraction speed 8.5 X
Track quality 100.0 %
Test CRC F91CDB2A
Copy CRC F91CDB2A
Accurately ripped (confidence 1) [12C89B3C] (AR v1)
Copy OK
Track 14
Filename D:\zzz\14 - Fantasiestucke X.wav
Pre-gap length 0:00:02.00
Peak level 75.1 %
Extraction speed 7.1 X
Track quality 100.0 %
Test CRC 2C95C8C8
Copy CRC 2C95C8C8
Accurately ripped (confidence 1) [E4FF9F75] (AR v1)
Copy OK
Track 15
Filename D:\zzz\15 - Fantasiestucke XVI.wav
Pre-gap length 0:00:02.00
Peak level 58.2 %
Extraction speed 6.9 X
Track quality 100.0 %
Test CRC DAB6FF5B
Copy CRC DAB6FF5B
Accurately ripped (confidence 1) [F2A41E75] (AR v1)
Copy OK
Track 16
Filename D:\zzz\16 - Fantasiestucke XVII.wav
Pre-gap length 0:00:02.00
Peak level 68.9 %
Extraction speed 7.8 X
Track quality 100.0 %
Test CRC 5E7F93F6
Copy CRC 5E7F93F6
Accurately ripped (confidence 1) [6D39C242] (AR v1)
Copy OK
All tracks accurately ripped
No errors occurred
End of status report
==== Log checksum 7679B547CFD95201428D0D9C102E20F9BB9FAD4319EB79C260C4E1372833B70D ====
 
Содержание индексной карты (.CUE)
REM GENRE "Free Jazz"
REM DATE 2004
REM DISCID A90D3F10
REM COMMENT "ExactAudioCopy v1.0b3"
PERFORMER "Georg Graewe, Kent Kessler, Hamid Drake"
TITLE "For Trio (16 Fantasiestucke)"
FILE "01 - Fantasiestucke I.wav" WAVE
TRACK 01 AUDIO
TITLE "Fantasiestucke I"
PERFORMER "Georg Graewe, Kent Kessler, Hamid Drake"
INDEX 01 00:00:00
TRACK 02 AUDIO
TITLE "Fantasiestucke II"
PERFORMER "Georg Graewe, Kent Kessler, Hamid Drake"
INDEX 00 01:54:38
FILE "02 - Fantasiestucke II.wav" WAVE
INDEX 01 00:00:00
TRACK 03 AUDIO
TITLE "Fantasiestucke III"
PERFORMER "Georg Graewe, Kent Kessler, Hamid Drake"
INDEX 00 03:41:55
FILE "03 - Fantasiestucke III.wav" WAVE
INDEX 01 00:00:00
TRACK 04 AUDIO
TITLE "Fantasiestucke IV"
PERFORMER "Georg Graewe, Kent Kessler, Hamid Drake"
INDEX 00 02:47:67
FILE "04 - Fantasiestucke IV.wav" WAVE
INDEX 01 00:00:00
TRACK 05 AUDIO
TITLE "Fantasiestucke XIV"
PERFORMER "Georg Graewe, Kent Kessler, Hamid Drake"
INDEX 00 03:13:29
FILE "05 - Fantasiestucke XIV.wav" WAVE
INDEX 01 00:00:00
TRACK 06 AUDIO
TITLE "Fantasiestucke XI"
PERFORMER "Georg Graewe, Kent Kessler, Hamid Drake"
INDEX 00 02:52:27
FILE "06 - Fantasiestucke XI.wav" WAVE
INDEX 01 00:00:00
TRACK 07 AUDIO
TITLE "Fantasiestucke XII"
PERFORMER "Georg Graewe, Kent Kessler, Hamid Drake"
INDEX 00 04:14:70
FILE "07 - Fantasiestucke XII.wav" WAVE
INDEX 01 00:00:00
TRACK 08 AUDIO
TITLE "Fantasiestucke XIII"
PERFORMER "Georg Graewe, Kent Kessler, Hamid Drake"
INDEX 00 02:55:28
FILE "08 - Fantasiestucke XIII.wav" WAVE
INDEX 01 00:00:00
TRACK 09 AUDIO
TITLE "Fantasiestucke V"
PERFORMER "Georg Graewe, Kent Kessler, Hamid Drake"
INDEX 00 02:32:52
FILE "09 - Fantasiestucke V.wav" WAVE
INDEX 01 00:00:00
TRACK 10 AUDIO
TITLE "Fantasiestucke VI"
PERFORMER "Georg Graewe, Kent Kessler, Hamid Drake"
INDEX 00 07:32:41
FILE "10 - Fantasiestucke VI.wav" WAVE
INDEX 01 00:00:00
TRACK 11 AUDIO
TITLE "Fantasiestucke XV"
PERFORMER "Georg Graewe, Kent Kessler, Hamid Drake"
INDEX 00 04:03:72
FILE "11 - Fantasiestucke XV.wav" WAVE
INDEX 01 00:00:00
TRACK 12 AUDIO
TITLE "Fantasiestucke VIII"
PERFORMER "Georg Graewe, Kent Kessler, Hamid Drake"
INDEX 00 02:37:32
FILE "12 - Fantasiestucke VIII.wav" WAVE
INDEX 01 00:00:00
TRACK 13 AUDIO
TITLE "Fantasiestucke IX"
PERFORMER "Georg Graewe, Kent Kessler, Hamid Drake"
INDEX 00 03:31:06
FILE "13 - Fantasiestucke IX.wav" WAVE
INDEX 01 00:00:00
TRACK 14 AUDIO
TITLE "Fantasiestucke X"
PERFORMER "Georg Graewe, Kent Kessler, Hamid Drake"
INDEX 00 07:55:37
FILE "14 - Fantasiestucke X.wav" WAVE
INDEX 01 00:00:00
TRACK 15 AUDIO
TITLE "Fantasiestucke XVI"
PERFORMER "Georg Graewe, Kent Kessler, Hamid Drake"
INDEX 00 01:48:29
FILE "15 - Fantasiestucke XVI.wav" WAVE
INDEX 01 00:00:00
TRACK 16 AUDIO
TITLE "Fantasiestucke XVII"
PERFORMER "Georg Graewe, Kent Kessler, Hamid Drake"
INDEX 00 01:46:19
FILE "16 - Fantasiestucke XVII.wav" WAVE
INDEX 01 00:00:00
 
Лог проверки качества
d:\>d:\aucdtect -d/-m0 d:\zzz\*.wav
auCDtect: CD records authenticity detector, version 0.8.2
Copyright (c) 2004 Oleg Berngardt. All rights reserved.
Copyright (c) 2004 Alexander Djourik. All rights reserved.
------------------------------------------------------------
Processing file: [01. Fantasiestucke I.wav]
------------------------------------------------------------
This track looks like CDDA with probability 100%
------------------------------------------------------------
Processing file: [02. Fantasiestucke II.wav]
------------------------------------------------------------
This track looks like MPEG with probability 91%
------------------------------------------------------------
Processing file: [03. Fantasiestucke III.wav]
------------------------------------------------------------
This track looks like CDDA with probability 100%
------------------------------------------------------------
Processing file: [04. Fantasiestucke IV.wav]
------------------------------------------------------------
This track looks like MPEG with probability 95%
------------------------------------------------------------
Processing file: [05. Fantasiestucke XIV.wav]
------------------------------------------------------------
This track looks like MPEG with probability 79%
------------------------------------------------------------
Processing file: [06. Fantasiestucke XI.wav]
------------------------------------------------------------
This track looks like MPEG with probability 95%
------------------------------------------------------------
Processing file: [07. Fantasiestucke XII.wav]
------------------------------------------------------------
This track looks like CDDA with probability 99%
------------------------------------------------------------
Processing file: [08. Fantasiestucke XIII.wav]
------------------------------------------------------------
This track looks like MPEG with probability 95%
------------------------------------------------------------
Processing file: [09. Fantasiestucke V.wav]
------------------------------------------------------------
This track looks like MPEG with probability 99%
------------------------------------------------------------
Processing file: [10. Fantasiestucke VI.wav]
------------------------------------------------------------
This track looks like MPEG with probability 95%
------------------------------------------------------------
Processing file: [11. Fantasiestucke XV.wav]
------------------------------------------------------------
This track looks like CDDA with probability 94%
------------------------------------------------------------
Processing file: [12. Fantasiestucke VIII.wav]
------------------------------------------------------------
This track looks like MPEG with probability 79%
------------------------------------------------------------
Processing file: [13. Fantasiestucke IX.wav]
------------------------------------------------------------
This track looks like MPEG with probability 95%
------------------------------------------------------------
Processing file: [14. Fantasiestucke X.wav]
------------------------------------------------------------
This track looks like CDDA with probability 54%
------------------------------------------------------------
Processing file: [15. Fantasiestucke XVI.wav]
------------------------------------------------------------
This track looks like MPEG with probability 93%
------------------------------------------------------------
Processing file: [16. Fantasiestucke XVII.wav]
------------------------------------------------------------
This track looks like MPEG with probability 93%
------------------------------------------------------------
Final Conclusion:
------------------------------------------------------------
Could not qualify the source of these tracks.
Доп. информация:
 
Album & Artist Info
All compositions by Georg Graewe
Born 1956, Bochum, Germany; piano, composer.
Georg Graewe began composing and performing professionally at the age of 15. He has since been leading a variety of ensembles - ranging from trio to chamber orchestra formats - which have involved some of the leading instrumentalists in contemporary music. His compositions, which include chamber music and works for full orchestra as well as scores for films, theatre productions, radio drama and video, have been performed and broadcast around the world.
Graewe has had a long-standing trio with Dutch cellist Ernst Reijseger and US-percussionist Gerry Hemingway since 1989 and has also performed and recorded with Anthony Braxton, Evan Parker, Dave Douglas, Phil Minton, Roscoe Mitchell, Barry Guy, Barre Phillips, Hamid Drake and John Butcher among many others.
Since 2000 he has also written 3 operas. Kopenhagen, his first, (based on the play by Michael Frayn) was produced by OPER KOLN (CologneOpera House) in 2003. His second opera Quicksilver, a commission by Semperoper Dresden, came out in November 2006 and the most recent, Barbara Strozzi oder die Avantgarde der Liebe was staged by Theater Luzern/Switzerland in 2010 and Oper Bonn/Germany in 2011. His videocantata on Albert Einstein's travel diaries - alle kennen meine visage - was premiered at the Jewish Museum Berlin in September 2005.
Since 1999 Graewe has been associated with CNMAT (Center for New Music and Audio Technology) at UC Berkeley. From 2002 to 2007 he taught at Hochschule fur Musik HANNS EISLER in Berlin.
In 2010 he curated a series of 27 events that presented different aspects of resonance between music, poetry, visusal arts and science as part of the European Cultural Capital RUHR.2010. A catalogue plus DVD edition documenting this project has been published on the Random Acoustics label.
Graewe has recently launched his new Sonicfiction Orchestra as part of a 3-day portrait at Vienna's Porgy&Bess in December 2011, recordings from which are being prepared for future release.
 
Состав
Georg Graewe: piano
Kent Kessler: bass
Hamid Drake: drums
По всем вопросам пишите личное сообщение пользователю M0p94ok.
07:44
173
Нет комментариев. Ваш будет первым!