Поиск

(Avant-Garde Jazz, Contemporary Jazz) [CD] Alon Nechushtan (Ken Filiano, Bob Meyer, Harold Rubin) - Ritual Fire - 2013, FLAC (tracks+.cue), lossless

(Avant-Garde Jazz, Contemporary Jazz) [CD] Alon Nechushtan (Ken Filiano, Bob Meyer, Harold Rubin) - Ritual Fire - 2013, FLAC (tracks+.cue), lossless
Alon Nechushtan / Ritual Fire
Жанр: Avant-Garde Jazz, Contemporary Jazz
Носитель: CD
Страна-производитель диска (релиза): Germany
Год издания: 2013
Издатель (лейбл): Between The Lines
Номер по каталогу: BTLCHR 71234
Аудиокодек: FLAC (*.flac)
Тип рипа: tracks+.cue
Битрейт аудио: lossless
Продолжительность: 50:51
Источник (релизер): cd
Наличие сканов в содержимом раздачи: нет
Треклист:
1. Hover 7:12
2. Ritual Fire 3:32
3. Psalmonody 6:06
4. Profusion 5:39
5. Ruah Kadim (Eastern Wind) 4:29
6. Free Falling 6:17
7. Aureoles 4:47
8. Across the Ocean Like a Seagull 4:19
9. Hamsin (Heat Wave) 5:23
10. Soliloqui 3:07
 
Лог создания рипа
Exact Audio Copy V1.0 beta 3 from 29. August 2011
EAC extraction logfile from 25. December 2014, 8:38
Alon Nechushtan / Ritual Fire
Used drive : ASUS DRW-24F1ST a Adapter: 0 ID: 0
Read mode : Secure
Utilize accurate stream : Yes
Defeat audio cache : Yes
Make use of C2 pointers : No
Read offset correction : 6
Overread into Lead-In and Lead-Out : No
Fill up missing offset samples with silence : Yes
Delete leading and trailing silent blocks : No
Null samples used in CRC calculations : Yes
Used interface : Native Win32 interface for Win NT & 2000
Gap handling : Appended to previous track
Used output format : User Defined Encoder
Selected bitrate : 320 kBit/s
Quality : High
Add ID3 tag : No
Command line compressor : D:\Programs\Exact Audio Copy\Flac\flac.exe
Additional command line options : -V -8 -T "Genre=%genre%" -T "Artist=%artist%" -T "Title=%title%" -T "Album=%albumtitle%" -T "Date=%year%" -T "Tracknumber=%tracknr%" -T "Comment=%comment%" %source%
TOC of the extracted CD
Track | Start | Length | Start sector | End sector
---------------------------------------------------------
1 | 0:00.00 | 7:11.43 | 0 | 32367
2 | 7:11.43 | 3:31.74 | 32368 | 48266
3 | 10:43.42 | 6:06.19 | 48267 | 75735
4 | 16:49.61 | 5:39.28 | 75736 | 101188
5 | 22:29.14 | 4:28.49 | 101189 | 121337
6 | 26:57.63 | 6:16.50 | 121338 | 149587
7 | 33:14.38 | 4:47.18 | 149588 | 171130
8 | 38:01.56 | 4:18.48 | 171131 | 190528
9 | 42:20.29 | 5:23.20 | 190529 | 214773
10 | 47:43.49 | 3:07.35 | 214774 | 228833
Track 1
Filename D:\EAC\01 Hover.wav
Pre-gap length 0:00:02.00
Peak level 100.0 %
Extraction speed 1.8 X
Track quality 99.9 %
Test CRC 1D5EA4AE
Copy CRC 1D5EA4AE
Copy OK
Track 2
Filename D:\EAC\02 Ritual Fire.wav
Peak level 100.0 %
Extraction speed 2.0 X
Track quality 100.0 %
Test CRC 81FF8C61
Copy CRC 81FF8C61
Copy OK
Track 3
Filename D:\EAC\03 Psalmonogy.wav
Pre-gap length 0:00:00.30
Peak level 100.0 %
Extraction speed 2.3 X
Track quality 100.0 %
Test CRC FD791AD1
Copy CRC FD791AD1
Copy OK
Track 4
Filename D:\EAC\04 Profusion.wav
Peak level 100.0 %
Extraction speed 2.5 X
Track quality 100.0 %
Test CRC 0EDA41AE
Copy CRC 0EDA41AE
Copy OK
Track 5
Filename D:\EAC\05 Ruah Kadim (Eastern Wind).wav
Peak level 100.0 %
Extraction speed 2.7 X
Track quality 100.0 %
Test CRC B58445A2
Copy CRC B58445A2
Copy OK
Track 6
Filename D:\EAC\06 Free Falling.wav
Peak level 95.6 %
Extraction speed 2.9 X
Track quality 100.0 %
Test CRC 98A5D8C8
Copy CRC 98A5D8C8
Copy OK
Track 7
Filename D:\EAC\07 Aureoles.wav
Peak level 100.0 %
Extraction speed 3.0 X
Track quality 100.0 %
Test CRC 92E1DBF3
Copy CRC 92E1DBF3
Copy OK
Track 8
Filename D:\EAC\08 Accross The Ocean Like A Seagull.wav
Peak level 100.0 %
Extraction speed 2.8 X
Track quality 99.9 %
Test CRC E0C4F3A4
Copy CRC E0C4F3A4
Copy OK
Track 9
Filename D:\EAC\09 Hamsin (Heat Wave).wav
Peak level 75.0 %
Extraction speed 3.3 X
Track quality 100.0 %
Test CRC E5D1D6F5
Copy CRC E5D1D6F5
Copy OK
Track 10
Filename D:\EAC\10 Soliloqui.wav
Pre-gap length 0:00:00.14
Peak level 100.0 %
Extraction speed 3.2 X
Track quality 100.0 %
Test CRC 0E286532
Copy CRC 0E286532
Copy OK
No errors occurred
End of status report
==== Log checksum 8E485030D83856B5C62A4AD91C3EB48FF64B52A42A1D20DFAD0B6F7ACA06FF47 ====
 
Содержание индексной карты (.CUE)
REM GENRE Jazz
REM DATE 2013
REM DISCID 830BEB0A
REM COMMENT "ExactAudioCopy v1.0b3"
PERFORMER "Alon Nechushtan"
TITLE "Ritual Fire"
FILE "01 Hover.wav" WAVE
TRACK 01 AUDIO
TITLE "Hover"
PERFORMER "Alon Nechushtan"
INDEX 01 00:00:00
FILE "02 Ritual Fire.wav" WAVE
TRACK 02 AUDIO
TITLE "Ritual Fire"
PERFORMER "Alon Nechushtan"
INDEX 01 00:00:00
TRACK 03 AUDIO
TITLE "Psalmonogy"
PERFORMER "Alon Nechushtan"
INDEX 00 03:31:44
FILE "03 Psalmonogy.wav" WAVE
INDEX 01 00:00:00
FILE "04 Profusion.wav" WAVE
TRACK 04 AUDIO
TITLE "Profusion"
PERFORMER "Alon Nechushtan"
INDEX 01 00:00:00
FILE "05 Ruah Kadim (Eastern Wind).wav" WAVE
TRACK 05 AUDIO
TITLE "Ruah Kadim (Eastern Wind)"
PERFORMER "Alon Nechushtan"
INDEX 01 00:00:00
FILE "06 Free Falling.wav" WAVE
TRACK 06 AUDIO
TITLE "Free Falling"
PERFORMER "Alon Nechushtan"
INDEX 01 00:00:00
FILE "07 Aureoles.wav" WAVE
TRACK 07 AUDIO
TITLE "Aureoles"
PERFORMER "Alon Nechushtan"
INDEX 01 00:00:00
FILE "08 Accross The Ocean Like A Seagull.wav" WAVE
TRACK 08 AUDIO
TITLE "Accross The Ocean Like A Seagull"
PERFORMER "Alon Nechushtan"
INDEX 01 00:00:00
FILE "09 Hamsin (Heat Wave).wav" WAVE
TRACK 09 AUDIO
TITLE "Hamsin (Heat Wave)"
PERFORMER "Alon Nechushtan"
INDEX 01 00:00:00
TRACK 10 AUDIO
TITLE "Soliloqui"
PERFORMER "Alon Nechushtan"
INDEX 00 05:23:06
FILE "10 Soliloqui.wav" WAVE
INDEX 01 00:00:00
Доп. информация: Recorded on September 20th, 2011 by Rich Blakin at IAR Studios, NYC.
 
Об исполнителе (группе)
"Alon Nechushtan is presenting a very special guest on "Ritual Fire": Harold Rubin born in South Africa in 1932. He studied classical clarinet, but was already attracted to jazz in his youth, first to the music of Duke Ellington and Count Basie, and later to Erik Dolphy and Tony Scott. His band celebrated his first successes and played at the first Jazz Festival in Johannesburg, among other places. He emigrated to Israel in 1963 due to the Apartheid system. He worked there successfully in his profession as architect and painter and was involved in the peace movement, so that he had little time for playing the clarinet. However, he got involved again at the end of the 70s, influenced by the free jazz of Cecil Taylor and John Carter, with his own bands ("Zaviot Quartet") and on tours through Europe and the USA (among others, with Jim Pepper and Christoph Spendel). Rubin has closely linked his life's personal, social and music freedom.
Alon Nechushtan was born in Rishon le Zion (near Tel Aviv) in 1974. He already learned to play the piano when he was six years old, and he began to compose for chamber music ensembles when he was 10. Private studies under Slava Ganelin as well as listening to the current music of his youth from Genesis to Pink Floyd stirred his awaking interest for jazz pianists - and of course composition studies from Debussy to Shostakovich. He also played in jazz combos during his classical composition studies in Jerusalem. After he received his Master's degree, he moved to the USA for good in 2003, first to Boston (on the advice of Between the Lines artist Yitzhak Yedid) where he continued his studies under Ran Blake, Paul Bley, Fred Hersch and others. Bob Brookmeyer was also one of his mentors, and he conducted numerous premiers of Nechushtan's compositions. He moved to New York in 2003, and his first recordings were soon released, among others on John Zorn's label Tzadik. Since then he has worked with many musicians such as Marty Ehrlich, Frank London, Ned Rothenberg, Eliott Sharp, Mark Dresser and many others.
Bob Meyer (born in 1945) is one of America' drummers most in demand by musicians such as Joe Lovano and Ed Schuller to Rick Margitza and John Abercrombie, with whom he currently plays in a quartet (with Adam Kolker and Johannes Weidenmuller). His timing and his sensitiveness provide "Ritual Fire" with a stable foundation.
Ken Filiano on bass (born in 1952) is currently one of the most innovative and virtuoso musicians in his field. His collaboration is highly esteemed by numerous co-musicians (Bobby Bradford, John Carter, Frank London, Giora Feidman, etc.). His openness for new experiences seems unlimited, and he also provides brilliant moments time and time again in Alon Nechushtan's trio."
 
Состав
Alon Nechusthan-piano, compositions
Ken Filiano-bass
Bob Meyer-drums
Harold Rubin-clarinet
07:43
340
Нет комментариев. Ваш будет первым!