Вы используете незарегистрированную версию компонента "Вкладки"!

Поиск

(Free Jazz, Avant-Garde) Grachan Moncur III - Evolution - 1963, APE (image+.cue), lossless

(Free Jazz, Avant-Garde) Grachan Moncur III - Evolution - 1963, APE (image+.cue), lossless
Треклист:
Grachan Moncur III - Evolution
Жанр: Free Jazz, Avant-Garde
Год выпуска диска: 1963
Производитель диска: Blue Note
Аудио кодек: APE
Тип рипа: image+.cue
Битрейт аудио: lossless
Продолжительность: 41:15
Трэклист:
01. Air Raid
02. Evolution
03. The Coaster
04. Monk in Wonderland
 
EAC
Exact Audio Copy V0.99 prebeta 4 from 23. January 2008
EAC extraction logfile from 5. February 2009, 18:26
Grachan Moncur III / Evolution
Used drive : HL-DT-STRW/DVD GCC-4242N Adapter: 1 ID: 0
Read mode : Secure
Utilize accurate stream : Yes
Defeat audio cache : Yes
Make use of C2 pointers : No
Read offset correction : 102
Overread into Lead-In and Lead-Out : No
Fill up missing offset samples with silence : Yes
Delete leading and trailing silent blocks : No
Null samples used in CRC calculations : Yes
Used interface : Native Win32 interface for Win NT & 2000
Used output format : Internal WAV Routines
Sample format : 44.100 Hz; 16 Bit; Stereo
TOC of the extracted CD
Track | Start | Length | Start sector | End sector
---------------------------------------------------------
1 | 0:00.32 | 9:18.55 | 32 | 41936
2 | 9:19.12 | 12:24.45 | 41937 | 97781
3 | 21:43.57 | 11:38.63 | 97782 | 150194
4 | 33:22.45 | 7:52.52 | 150195 | 185646
Range status and errors
Selected range
Filename C:\_\EAC_Out\Out\Grachan Moncur III - Evolution\Grachan Moncur III - Evolution.wav
Peak level 92.2 %
Range quality 99.9 %
Copy CRC E1EC4829
Copy OK
No errors occurred
AccurateRip summary
Track 1 not present in database
Track 2 not present in database
Track 3 not present in database
Track 4 not present in database
None of the tracks are present in the AccurateRip database
End of status report
 
AUDIOCHEKER
Started at: четверг, 12. 02. 2009. - 1:51.09
1 file found
1 -===- D:\Раздача\My Music\Grachan Moncur III - Evolution\Grachan Moncur III - Evolution.ape
Extracted successfully
Conclusion: This track looks like CDDA with probability 100%
Tempfile successfully deleted.
Finished at: четверг, 12. 02. 2009. - 1:56.47 (operation time: 0:05.37)
Any questions -> support@pro-jazz.com. По всем вопросам пишите -> support@pro-jazz.com
08:05
138
Нет комментариев. Ваш будет первым!