Вы используете незарегистрированную версию компонента "Вкладки"!

Поиск

(Avant-Garde / Structural Improvisation / Experimental / Ambient / ECM) Jon Hassell - Last Night the Moon Came Dropping Its Clothes in the Street (ECM 2077) - 2009, FLAC (image+.cue), lossless

(Avant-Garde / Structural Improvisation / Experimental / Ambient / ECM) Jon Hassell - Last Night the Moon Came Dropping Its Clothes in the Street (ECM 2077) - 2009, FLAC (image+.cue), lossless
Треклист:
Jon Hassell - Last Night the Moon Came Dropping Its Clothes in the Street
Жанр: Avant-Garde / Structural Improvisation / Experimental / Ambient / ECM
Год выпуска диска: 2009
Производитель диска: USA (ECM)
Аудио кодек: FLAC
Тип рипа: image+.cue
Битрейт аудио: lossless
Продолжительность: 1:03:54
Jon Hassell trumpet, keyboard
Peter Freeman bass, percussion, guitar
Jan Bang live sampling
Jamie Muhoberac keyboard, drums
Rick Cox guitar
Kheir Eddine M'Kachiche violin
Eivind Aarset guitar
Helge Andreas Norbakken drums
Pete Lockett drums
Dino J. A. Deane live sampling
Steve Shehan percussion
Aurora
Time And Place
Abu Gil
Last Night The Moon Came
Clairvoyance
Courtrais
Scintilla
Northline
Blue Period
Light On Water
Recorded November 2008
ECM 2077
 
AMG Review
The strangely beautiful title of Jon Hassell's Last Night the Moon Came Dropping Its Clothes in the Street on ECM is taken from a poem by the great 13th century Sufi mystic Jalaluddin Rumi. The rest of it, in the context of the sound here, is also instructional: "Last night the moon came dropping its clothes in the street/I took it as a sign to start singing/Falling up into the bowl of sky." Hassell's electronically enhanced trumpet playing follows directly in a line from Miles Davis' experiments of the 1970s. It comes off more as "singing" than anything else. He sounds like no one else, but many trumpet players and sound collagists have been deeply influenced by his work. The "bowl of sky" in the poem is referent, too: it reflects the quality of Hassell's musical montages and sonic investigations. This has been true since the very beginning in the 1970s, but became his trademark "sound" while working with Brian Eno as he developed his "Fourth World" music -- showcased on his EG albums from the early '80s (Fourth World, Vol. 1: Possible Musics, Fourth World, Vol. 2: Dream Theory in Malaya, Aka/Darbari/Java ) -- and was acutely articulated on his last ECM release, 1985's brilliant Power Spot. Last Night the Moon Came Dropping Its Clothes in the Street is Hassell's first recording since 2005's Maarifa Street: Magic Realism, Vol. 2; it's an assembled montage of sessions recorded in France and Los Angeles, and concerts are also woven into the rich fabric here. Hassell's music, even now, sounds alien, beguiling, mercurial, seemingly formless and airy but full of subtle washes, shifts of tone, and polyrhythmic strategies. The ten cuts here are mostly middle-length pieces that range between five and eight minutes, but three -- "Time and Place," "Clairvoyance," and "Scintilla" -- act as transitions segmenting, however seamlessly, the album into roughly thirds.
The band contains a pair of holdovers from his last outing in bassist Peter Freeman -- who doubles on laptop -- and guitarist Rick Cox, who has been augmented by no less than Eivind Aarset on the instrument. The other new players include Jamie Muhoberacon keyboard and laptop, drummers Helge Norbakken and Pete Lockett, Kheir Eddine M'Kachiche on violin, and Jan Bang on live sampling. Together they root and extend the aerial sound of Hassell's trumpet that flows everywhere and anywhere. Check the simple bass and guitar rhythmic attack on "Abu Gil," the album's longest track, where In a Silent Way's "It's About That Time" meets the desert blues feels of "Anouar Brahem" and the Master Musicians of Jajouka meet the noir-ish ambient funk of early Shriekback. The title track, by contrast, is a long, loping, beautiful number where moods of morning, marketplaces, and nocturnal sunsets all loosely entwine around the listener. The obvious postmodern jazz soloist's approach hovers all around the shapes and colors evoked by keyboards and trumpet in "Courtrais," as soundscape, loops, and ambiences all deepen and widen before being grounded by a subtle but unflinching backbone-slipping bassline by Freeman. Hassell moves toward everything -- samples, drifting sonics, hints of melody, and, for such quiet and subtle music, an impressive harmonic palette -- to create a montage that evokes the timelessness of the past with a firm grasp on the unknowable, perhaps even unspeakable, future. His jazzman's sense of time and phrasing is enhanced by his painterly sense of space and shade. This album is further proof that Jon Hassell inhabits a terrain of his own, and reflects the true vibration of poetry as it meets the human ear as something akin to pure sound. ~ Thom Jurek, AMG
 
EAC Report
Exact Audio Copy V0.99 prebeta 4 from 23. January 2008
EAC extraction logfile from 11. February 2009, 20:36
Jon Hassell / Last Night the Moon Came Dropping Its Clothes in the Street
Used drive : TSSTcorpCD/DVDW SH-S182M Adapter: 2 ID: 0
Read mode : Secure
Utilize accurate stream : Yes
Defeat audio cache : Yes
Make use of C2 pointers : No
Read offset correction : 6
Overread into Lead-In and Lead-Out : No
Fill up missing offset samples with silence : Yes
Delete leading and trailing silent blocks : No
Null samples used in CRC calculations : Yes
Used interface : Installed external ASPI interface
Used output format : User Defined Encoder
Selected bitrate : 1024 kBit/s
Quality : High
Add ID3 tag : No
Command line compressor : C:\Program Files\Exact Audio Copy\FLAC\FLAC.EXE
Additional command line options : -8 -V -T "ARTIST=%a" -T "TITLE=%t" -T "ALBUM=%g" -T "DATE=%y" -T "TRACKNUMBER=%n" -T "GENRE=%m" -T "COMMENT=%e" %s -o %d
TOC of the extracted CD
Track | Start | Length | Start sector | End sector
---------------------------------------------------------
1 | 0:00.00 | 5:22.71 | 0 | 24220
2 | 5:22.71 | 3:48.11 | 24221 | 41331
3 | 9:11.07 | 13:04.42 | 41332 | 100173
4 | 22:15.49 | 11:15.64 | 100174 | 150862
5 | 33:31.38 | 1:05.70 | 150863 | 155807
6 | 34:37.33 | 5:44.07 | 155808 | 181614
7 | 40:21.40 | 0:50.60 | 181615 | 185424
8 | 41:12.25 | 6:43.03 | 185425 | 215652
9 | 47:55.28 | 7:58.19 | 215653 | 251521
10 | 55:53.47 | 7:59.67 | 251522 | 287513
Range status and errors
Selected range
Filename C:\Documents and Settings\Igor\My Documents\My Music\eac\Jon Hassell - Last Night the Moon Came Dropping Its Clothes in the Street.wav
Peak level 97.7 %
Range quality 100.0 %
Test CRC 651188D6
Copy CRC 651188D6
Copy OK
No errors occurred
AccurateRip summary
Track 1 not present in database
Track 2 not present in database
Track 3 not present in database
Track 4 not present in database
Track 5 not present in database
Track 6 not present in database
Track 7 not present in database
Track 8 not present in database
Track 9 not present in database
Track 10 not present in database
None of the tracks are present in the AccurateRip database
End of status report
Any questions -> support@pro-jazz.com. По всем вопросам пишите -> support@pro-jazz.com
08:06
147
Нет комментариев. Ваш будет первым!