Вы используете незарегистрированную версию компонента "Вкладки"!

Поиск

(Free Jazz, Avant-Garde, Free Improvisation) Terry Riley and Rova Saxophone Quartet - Chanting the Light of Foresight - 1994, APE (image+.cue) lossless

Треклист:
Terry Riley and Rova Saxophone Quartet - Chanting the Light of Foresight
Жанр: Free Jazz, Avant-Garde, Free Improvisation
Страна-производитель диска: US
Год издания диска: 1994
Издатель (лейбл): New Albion
Номер по каталогу: NA064CD
Аудио кодек: APE (*.ape)
Тип рипа: image+.cue
Битрейт аудио: lossless
Продолжительность: 54:03
Источник (релизер): Собственный рип с копии оригинального диска
Наличие сканов в содержимом раздачи: нет
Треклист:
1. The Tuning Path 17:09
2. The Pipes Of Medb (Medb's Blues) 7:06
3. Song Announcing Dawn's Combat 8:56
4. The Chord Of War 5:40
5. Ferdia's Death Chant 4:14
6. Chanting The Light Of Foresight 8:52
Recorded on April 15, 16; May 9, 10; July 21, 1993 at St. Stephens Church, Belvedere.
 
Лог создания рипа
Exact Audio Copy V0.99 prebeta 5 from 4. May 2009
EAC extraction logfile from 9. September 2010, 1:04
Rova - Terry Riley / Chanting the Light of Foresight
Used drive : Optiarc DVD RW AD-5200S Adapter: 2 ID: 1
Read mode : Secure
Utilize accurate stream : Yes
Defeat audio cache : Yes
Make use of C2 pointers : No
Read offset correction : 48
Overread into Lead-In and Lead-Out : No
Fill up missing offset samples with silence : Yes
Delete leading and trailing silent blocks : No
Null samples used in CRC calculations : Yes
Used interface : Native Win32 interface for Win NT & 2000
Used output format : Internal WAV Routines
Sample format : 44.100 Hz; 16 Bit; Stereo
Use compression offset : 0
TOC of the extracted CD
Track | Start | Length | Start sector | End sector
---------------------------------------------------------
1 | 0:00.00 | 17:11.72 | 0 | 77396
2 | 17:11.72 | 7:08.67 | 77397 | 109563
3 | 24:20.64 | 8:54.22 | 109564 | 149635
4 | 33:15.11 | 5:40.35 | 149636 | 175170
5 | 38:55.46 | 4:16.12 | 175171 | 194382
6 | 43:11.58 | 8:53.05 | 194383 | 234362
Range status and errors
Selected range
Filename F:\FOS\MY_MUSIC\ROVA\Rova - Terry Riley - Chanting the Light of Foresight\Rova - Terry Riley - Chanting the Light of Foresight.wav
Peak level 100.0 %
Range quality 100.0 %
Test CRC 13BA2410
Copy CRC 13BA2410
Copy OK
No errors occurred
AccurateRip summary
Track 1 not present in database
Track 2 not present in database
Track 3 not present in database
Track 4 not present in database
Track 5 not present in database
Track 6 not present in database
None of the tracks are present in the AccurateRip database
End of status report
 
Содержание индексной карты (.CUE)
REM GENRE Jazz
REM DATE 1987
REM DISCID 520C3406
REM COMMENT "ExactAudioCopy v0.99pb5"
PERFORMER "Rova - Terry Riley"
TITLE "Chanting the Light of Foresight"
FILE "Rova - Terry Riley - Chanting the Light of Foresight.wav" WAVE
TRACK 01 AUDIO
TITLE "The Tuning Path"
PERFORMER "Rova - Terry Riley"
FLAGS DCP
INDEX 01 00:00:00
TRACK 02 AUDIO
TITLE "The Pipes Of Medb (Medb's Blues)"
PERFORMER "Rova - Terry Riley"
FLAGS DCP
INDEX 01 17:11:72
TRACK 03 AUDIO
TITLE "Song Announcing Dawn's Combat"
PERFORMER "Rova - Terry Riley"
FLAGS DCP
INDEX 01 24:20:64
TRACK 04 AUDIO
TITLE "The Chord Of War"
PERFORMER "Rova - Terry Riley"
FLAGS DCP
INDEX 01 33:15:11
TRACK 05 AUDIO
TITLE "Ferdia's Death Chant"
PERFORMER "Rova - Terry Riley"
FLAGS DCP
INDEX 01 38:55:46
TRACK 06 AUDIO
TITLE "Chanting The Light Of Foresight"
PERFORMER "Rova - Terry Riley"
FLAGS DCP
INDEX 01 43:11:58
 
Состав
Terry Riley
with
Rova Saxophone Quartet:
Stephen Adams,
Jon Raskin,
Larry Ochs,
Bruce Ackley
По всем вопросам пишите личное сообщение пользователю M0p94ok.
03:13
164
Нет комментариев. Ваш будет первым!