Вы используете незарегистрированную версию компонента "Вкладки"!

Поиск

(Free Jazz, Avant-Garde, Free Improvisation) Rova Saxophone Quartet - Теперь Нас Двое / This Time We Are Both - 1989, APE (image+.cue) lossless

Треклист:
Rova Saxophone Quartet - Теперь Нас Двое / This Time We Are Both
Жанр: Free Jazz, Avant-Garde, Free Improvisation
Страна-производитель диска: US
Год издания диска: 1989
Издатель (лейбл): New Albion
Номер по каталогу: NAR 041
Аудио кодек: APE (*.ape)
Тип рипа: image+.cue
Битрейт аудио: lossless
Продолжительность: 67:03
Источник (релизер): Собственный рип с копии оригинального диска
Наличие сканов в содержимом раздачи: нет
Треклист:
1 Introduction 1:00
2 Third Terrain Raskin, Jonathan 6:56
3 Torque Ochs, Larry 9:55
4 The Freedom of Information Ackley, Bruce 8:43
5 What Was Lost Regained Raskin, Jonathan 11:38
6 Other Brothers Curran, Alvin 2:31
7 The Unquestioned Answer Ochs, Larry/Raskin, Jonathan 25:52
 
Лог создания рипа
Exact Audio Copy V0.99 prebeta 5 from 4. May 2009
EAC extraction logfile from 8. September 2010, 18:36
Rova Saxaphone Quartet / This Time We Are Both
Used drive : Optiarc DVD RW AD-5200S Adapter: 2 ID: 1
Read mode : Secure
Utilize accurate stream : Yes
Defeat audio cache : Yes
Make use of C2 pointers : No
Read offset correction : 48
Overread into Lead-In and Lead-Out : No
Fill up missing offset samples with silence : Yes
Delete leading and trailing silent blocks : No
Null samples used in CRC calculations : Yes
Used interface : Native Win32 interface for Win NT & 2000
Used output format : Internal WAV Routines
Sample format : 44.100 Hz; 16 Bit; Stereo
Use compression offset : 0
TOC of the extracted CD
Track | Start | Length | Start sector | End sector
---------------------------------------------------------
1 | 0:00.00 | 1:00.40 | 0 | 4539
2 | 1:00.40 | 6:59.07 | 4540 | 35971
3 | 7:59.47 | 10:01.28 | 35972 | 81074
4 | 18:01.00 | 8:48.10 | 81075 | 120684
5 | 26:49.10 | 11:40.47 | 120685 | 173231
6 | 38:29.57 | 2:41.08 | 173232 | 185314
7 | 41:10.65 | 25:53.30 | 185315 | 301819
Range status and errors
Selected range
Filename F:\FOS\MY_MUSIC\ROVA\Rova Saxaphone Quartet - This Time We Are Both\Rova Saxaphone Quartet - This Time We Are Both.wav
Peak level 86.3 %
Range quality 99.9 %
Test CRC ED9B9374
Copy CRC ED9B9374
Copy OK
No errors occurred
AccurateRip summary
Track 1 cannot be verified as accurate (confidence 5) [C51D5667], AccurateRip returned [B4ADD18A]
Track 2 cannot be verified as accurate (confidence 5) [27D9F508], AccurateRip returned [BA336807]
Track 3 cannot be verified as accurate (confidence 5) [8844AA4B], AccurateRip returned [CFD0A689]
Track 4 cannot be verified as accurate (confidence 5) [BAF57E62], AccurateRip returned [9421AAF7]
Track 5 cannot be verified as accurate (confidence 5) [CEBC8152], AccurateRip returned [480F4D46]
Track 6 cannot be verified as accurate (confidence 5) [2BE34981], AccurateRip returned [05283D57]
Track 7 cannot be verified as accurate (confidence 5) [B0B59920], AccurateRip returned [0CB2B5DA]
No tracks could be verified as accurate
You may have a different pressing from the one(s) in the database
End of status report
 
Содержание индексной карты (.CUE)
REM GENRE Jazz
REM DATE 1991
REM DISCID 420FB807
REM COMMENT "ExactAudioCopy v0.99pb5"
PERFORMER "Rova Saxaphone Quartet"
TITLE "This Time We Are Both"
FILE "Rova Saxaphone Quartet - This Time We Are Both.wav" WAVE
TRACK 01 AUDIO
TITLE "Introduction"
PERFORMER "Rova Saxaphone Quartet"
INDEX 01 00:00:00
TRACK 02 AUDIO
TITLE "Third Terrain"
PERFORMER "Rova Saxaphone Quartet"
INDEX 01 01:00:40
TRACK 03 AUDIO
TITLE "Torque"
PERFORMER "Rova Saxaphone Quartet"
INDEX 01 07:59:47
TRACK 04 AUDIO
TITLE "The Freedom of Information"
PERFORMER "Rova Saxaphone Quartet"
INDEX 01 18:01:00
TRACK 05 AUDIO
TITLE "What Was Lost Regained"
PERFORMER "Rova Saxaphone Quartet"
INDEX 01 26:49:10
TRACK 06 AUDIO
TITLE "Other Brothers"
PERFORMER "Rova Saxaphone Quartet"
INDEX 01 38:29:57
TRACK 07 AUDIO
TITLE "The Unquestioned Answer"
PERFORMER "Rova Saxaphone Quartet"
INDEX 01 41:10:65
 
Об альбоме (сборнике)
Recorded during their second tour of the Soviet Union, these six performances by Rova (Larry Ochs on tenor and sopranino, Bruce Ackley on soprano, Steve Adams on alto and sopranino, and baritonist Jon Raskin) are consistently exciting and inventive. In general, the four masterful saxophonists start off with fairly accessible and rhythmic patterns before venturing into loose but controlled freedom. The sound explorations cover a great deal of emotional ground and usually change or conclude shortly after reaching their optimal length; there is no self-indulgent screaming or aimless wandering. One of Rova's finest recordings.
Recording Date Nov 1989
 
Состав
Larry Ochs Sax (Soprano), Sax (Tenor)
Jon Raskin Sax (Baritone)
Bruce Ackley Sax (Soprano)
Steve Adams Sax (Alto), Sax (Soprano)
Any questions -> support@pro-jazz.com. По всем вопросам пишите -> support@pro-jazz.com
03:12
155
Нет комментариев. Ваш будет первым!