Вы используете незарегистрированную версию компонента "Вкладки"!

Поиск

(Free Jazz, Avant-Garde, Free Improvisation) String Trio of New York (Six CD Set) - Billy Bang / James Emery / John Lindberg / Regina Carter with Anthony Davis, FLAC (image+.cue), lossless

(Free Jazz, Avant-Garde, Free Improvisation) String Trio of New York (Six CD Set) - Billy Bang / James Emery / John Lindberg / Regina Carter with Anthony Davis, FLAC (image+.cue), lossless
Треклист:
String Trio of New York (Six CD Set)
Жанр: Free Jazz, Avant-Garde, Free Improvisation
Аудио кодек: FLAC
Тип рипа: image+.cue
Битрейт аудио: lossless
Billy Bang / James Emery / John Lindberg / Regina Carter with Anthony Davis
String Trio of New York - First String (1979, Black Saint)
String Trio Of New York - Common Goal (1982, Black Saint)
String Trio of New York - Natural Balance (1987, Black Saint)
String Trio Of New York - Octagon (1994, Black Saint)
String Trio of New York - Blues (1995, Black Saint)
String Trio Of New York - String Trio Of New York With Anthony Davis (1997, Music and Arts Programs of America, Inc)
Собственные рипы с оригинальных дисков
 
First String
Трэклист:
East Side Suite 19:53
Billy Bang with James Emery, John Lindberg, String Trio Of New York |
Subway Ride With Giuseppi Logan 8:05
Billy Bang with James Emery, John Lindberg, String Trio Of New York |
Catharsis In Real Time 9:04
Billy Bang with James Emery, John Lindberg, String Trio Of New York |
Время звучания : 37:02
Исполнители:
Billy Bang, James Emery, John Lindberg
Год издания : 1979
Компания звукозаписи : Black Saint
 
Отчет ЕАС
Exact Audio Copy V0.99 prebeta 5 from 4. May 2009
EAC extraction logfile from 23. August 2010, 21:14
String Trio of New York / First String
Used drive : Optiarc DVD RW AD-5200S Adapter: 2 ID: 1
Read mode : Secure
Utilize accurate stream : Yes
Defeat audio cache : Yes
Make use of C2 pointers : No
Read offset correction : 48
Overread into Lead-In and Lead-Out : No
Fill up missing offset samples with silence : Yes
Delete leading and trailing silent blocks : No
Null samples used in CRC calculations : Yes
Used interface : Native Win32 interface for Win NT & 2000
Used output format : User Defined Encoder
Selected bitrate : 768 kBit/s
Quality : High
Add ID3 tag : No
Command line compressor : C:\Program Files\Exact Audio Copy\FLAC\FLAC.EXE
Additional command line options : -6 -V -T "ARTIST=%a" -T "TITLE=%t" -T "ALBUM=%g" -T "DATE=%y" -T "TRACKNUMBER=%n" -T "GENRE=%m" -T "COMMENT=%e" %s -o %d
Use compression offset : 0
TOC of the extracted CD
Track | Start | Length | Start sector | End sector
---------------------------------------------------------
1 | 0:00.00 | 19:53.37 | 0 | 89511
2 | 19:53.37 | 8:04.48 | 89512 | 125859
3 | 27:58.10 | 9:03.42 | 125860 | 166626
Range status and errors
Selected range
Filename F:\FOS\MY_MUSIC\String Trio of New York\String Trio of New York - First String\String Trio of New York - First String.wav
Peak level 95.3 %
Range quality 100.0 %
Copy CRC 85BAB8ED
Copy OK
No errors occurred
AccurateRip summary
Track 1 accurately ripped (confidence 2) [CC47BFFF]
Track 2 accurately ripped (confidence 2) [2C132A33]
Track 3 accurately ripped (confidence 2) [E85E5B8C]
All tracks accurately ripped
End of status report
 
Common Goal
Трэклист:
1. Multiple Reasons (Lindberg) 7:06
2. Space Walk (Bang) 7:50
3. San San Nana (Bang) 5:50
4. Between The Lines (Emery) 6:56
5. Common Goal (Lindberg) 6:04
6. Extensions And Exceptions (Emery) 7:32
recorded November 12-13, 1981, Barigozzi Studios, Milan
Время звучания : 41:44
Исполнители:
Billy Bang, violin, yokobue flute, gong;
James Emery, guitar, soprano guitar;
John Lindberg, bass
Год издания : 1982
Компания звукозаписи : Black Saint 0058 (Italy)
 
Отчет ЕАС
Exact Audio Copy V0.99 prebeta 5 from 4. May 2009
EAC extraction logfile from 23. August 2010, 21:45
The String Trio Of New York / Common Goal
Used drive : Optiarc DVD RW AD-5200S Adapter: 2 ID: 1
Read mode : Secure
Utilize accurate stream : Yes
Defeat audio cache : Yes
Make use of C2 pointers : No
Read offset correction : 48
Overread into Lead-In and Lead-Out : No
Fill up missing offset samples with silence : Yes
Delete leading and trailing silent blocks : No
Null samples used in CRC calculations : Yes
Used interface : Native Win32 interface for Win NT & 2000
Used output format : User Defined Encoder
Selected bitrate : 768 kBit/s
Quality : High
Add ID3 tag : No
Command line compressor : C:\Program Files\Exact Audio Copy\FLAC\FLAC.EXE
Additional command line options : -6 -V -T "ARTIST=%a" -T "TITLE=%t" -T "ALBUM=%g" -T "DATE=%y" -T "TRACKNUMBER=%n" -T "GENRE=%m" -T "COMMENT=%e" %s -o %d
Use compression offset : 0
TOC of the extracted CD
Track | Start | Length | Start sector | End sector
---------------------------------------------------------
1 | 0:00.33 | 7:11.32 | 33 | 32389
2 | 7:11.65 | 7:54.63 | 32390 | 68002
3 | 15:06.53 | 5:54.55 | 68003 | 94607
4 | 21:01.33 | 7:00.00 | 94608 | 126107
5 | 28:01.33 | 6:07.00 | 126108 | 153632
6 | 34:08.33 | 7:36.00 | 153633 | 187832
Range status and errors
Selected range
Filename F:\FOS\MY_MUSIC\String Trio of New York\The String Trio Of New York - Common Goal\The String Trio Of New York - Common Goal - 1982.wav
Peak level 100.0 %
Range quality 99.9 %
Test CRC DFA7D5F9
Copy CRC DFA7D5F9
Copy OK
No errors occurred
AccurateRip summary
Track 1 cannot be verified as accurate (confidence 1) [4EA571C9], AccurateRip returned [AC9CAEA0]
Track 2 accurately ripped (confidence 1) [A62988E9]
Track 3 accurately ripped (confidence 1) [F2C1FD75]
Track 4 accurately ripped (confidence 1) [5CCB51DD]
Track 5 accurately ripped (confidence 1) [DA66CD0C]
Track 6 accurately ripped (confidence 1) [0157D27F]
5 track(s) accurately ripped
1 track(s) could not be verified as accurate
Some tracks could not be verified as accurate
End of status report
 
Natural Balance
Трэклист:
1. One For Frankfurt T.V. (Bang/Emery) 6:21
2. Seven Vice (Lindberg) 7:06
3. Texas Koto Blues (Emery) 7:30
4. Ground Work (Lindberg) 6:52
5. Shadows In The Light (Emery) 8:39
6. Going Through (Bang) 5:42
recorded April 1-2, 1986, Barigozzi Studios, Milan
Время звучания : 42:25
Исполнители:
Billy Bang, violin;
James Emery, guitars;
John Lindberg, bass
Год издания : 1987
Компания звукозаписи : Black Saint 0098 (Italy)
 
Отчет ЕАС
Exact Audio Copy V0.99 prebeta 5 from 4. May 2009
EAC extraction logfile from 23. August 2010, 22:09
String Trio of New York / Natural Balance
Used drive : Optiarc DVD RW AD-5200S Adapter: 2 ID: 1
Read mode : Secure
Utilize accurate stream : Yes
Defeat audio cache : Yes
Make use of C2 pointers : No
Read offset correction : 48
Overread into Lead-In and Lead-Out : No
Fill up missing offset samples with silence : Yes
Delete leading and trailing silent blocks : No
Null samples used in CRC calculations : Yes
Used interface : Native Win32 interface for Win NT & 2000
Used output format : User Defined Encoder
Selected bitrate : 768 kBit/s
Quality : High
Add ID3 tag : No
Command line compressor : C:\Program Files\Exact Audio Copy\FLAC\FLAC.EXE
Additional command line options : -6 -V -T "ARTIST=%a" -T "TITLE=%t" -T "ALBUM=%g" -T "DATE=%y" -T "TRACKNUMBER=%n" -T "GENRE=%m" -T "COMMENT=%e" %s -o %d
Use compression offset : 0
TOC of the extracted CD
Track | Start | Length | Start sector | End sector
---------------------------------------------------------
1 | 0:00.33 | 6:26.30 | 33 | 29012
2 | 6:26.63 | 7:10.62 | 29013 | 61324
3 | 13:37.50 | 7:32.28 | 61325 | 95252
4 | 21:10.03 | 6:54.22 | 95253 | 126324
5 | 28:04.25 | 8:42.50 | 126325 | 165524
6 | 36:47.00 | 5:38.65 | 165525 | 190939
Range status and errors
Selected range
Filename F:\FOS\MY_MUSIC\String Trio of New York\String Trio of New York - Natural Balance\String Trio of New York - Natural Balance.wav
Peak level 93.1 %
Range quality 100.0 %
Test CRC 066CB157
Copy CRC 066CB157
Copy OK
No errors occurred
AccurateRip summary
Track 1 not present in database
Track 2 not present in database
Track 3 not present in database
Track 4 not present in database
Track 5 not present in database
Track 6 not present in database
None of the tracks are present in the AccurateRip database
End of status report
 
Octagon
Трэклист:
1. The Pursuit Of Happiness (Emery) 7:05
2. One For Robin (Marty Ehrlich) 5:28
3. Strings And Things (Muhal Richard Abrams) 7:19
4. Circular Views (Lindberg) 7:42
5. Upside The Downside (Mark Helias) 13:09
6. Forever February (Carter) 7:11
7. Billie: The Queen Of Holiday (Leo Smith) 13:06
8. A Short History Of The Balkans (Bobby Previte) 8:12
recorded November 5-6, 1992, Barigozzi Studios, Milan
Время звучания : 69:13
Исполнители:
Regina Carter, violin;
James Emery, guitar;
John Lindberg, bass
Год издания : 1994
Компания звукозаписи : Black Saint 120131 (Italy)
 
Отчет ЕАС
Exact Audio Copy V0.99 prebeta 5 from 4. May 2009
EAC extraction logfile from 23. August 2010, 20:57
String Trio Of New York / Octagon
Used drive : Optiarc DVD RW AD-5200S Adapter: 2 ID: 1
Read mode : Secure
Utilize accurate stream : Yes
Defeat audio cache : Yes
Make use of C2 pointers : No
Read offset correction : 48
Overread into Lead-In and Lead-Out : No
Fill up missing offset samples with silence : Yes
Delete leading and trailing silent blocks : No
Null samples used in CRC calculations : Yes
Used interface : Native Win32 interface for Win NT & 2000
Used output format : User Defined Encoder
Selected bitrate : 768 kBit/s
Quality : High
Add ID3 tag : No
Command line compressor : C:\Program Files\Exact Audio Copy\FLAC\FLAC.EXE
Additional command line options : -6 -V -T "ARTIST=%a" -T "TITLE=%t" -T "ALBUM=%g" -T "DATE=%y" -T "TRACKNUMBER=%n" -T "GENRE=%m" -T "COMMENT=%e" %s -o %d
Use compression offset : 0
TOC of the extracted CD
Track | Start | Length | Start sector | End sector
---------------------------------------------------------
1 | 0:00.33 | 7:05.00 | 33 | 31907
2 | 7:05.33 | 5:28.05 | 31908 | 56512
3 | 12:33.38 | 7:19.70 | 56513 | 89507
4 | 19:53.33 | 7:42.00 | 89508 | 124157
5 | 27:35.33 | 13:09.00 | 124158 | 183332
6 | 40:44.33 | 7:11.00 | 183333 | 215657
7 | 47:55.33 | 13:06.00 | 215658 | 274607
8 | 61:01.33 | 8:12.00 | 274608 | 311507
Range status and errors
Selected range
Filename f:\FOS\MY_MUSIC\String Trio of New York\String Trio Of New York - Octagon\String Trio Of New York - Octagon.wav
Peak level 97.4 %
Range quality 99.9 %
Test CRC 6DB45D35
Copy CRC 6DB45D35
Copy OK
No errors occurred
AccurateRip summary
Track 1 accurately ripped (confidence 1) [FE813F1B]
Track 2 accurately ripped (confidence 1) [8886839D]
Track 3 accurately ripped (confidence 1) [72DD201F]
Track 4 accurately ripped (confidence 1) [3780CB61]
Track 5 accurately ripped (confidence 1) [9D0C0246]
Track 6 accurately ripped (confidence 1) [DD82CD04]
Track 7 accurately ripped (confidence 1) [A83C28E1]
Track 8 accurately ripped (confidence 1) [9081D1E8]
All tracks accurately ripped
End of status report
------------------------------------------------------------
Exact Audio Copy V0.99 prebeta 5 from 4. May 2009
EAC extraction logfile from 23. August 2010, 20:58
String Trio Of New York / Octagon
Used drive : Optiarc DVD RW AD-5200S Adapter: 2 ID: 1
Read mode : Secure
Utilize accurate stream : Yes
Defeat audio cache : Yes
Make use of C2 pointers : No
Read offset correction : 48
Overread into Lead-In and Lead-Out : No
Fill up missing offset samples with silence : Yes
Delete leading and trailing silent blocks : No
Null samples used in CRC calculations : Yes
Used interface : Native Win32 interface for Win NT & 2000
Used output format : Internal WAV Routines
Sample format : 44.100 Hz; 16 Bit; Stereo
Use compression offset : 0
TOC of the extracted CD
Track | Start | Length | Start sector | End sector
---------------------------------------------------------
1 | 0:00.33 | 7:05.00 | 33 | 31907
2 | 7:05.33 | 5:28.05 | 31908 | 56512
3 | 12:33.38 | 7:19.70 | 56513 | 89507
4 | 19:53.33 | 7:42.00 | 89508 | 124157
5 | 27:35.33 | 13:09.00 | 124158 | 183332
6 | 40:44.33 | 7:11.00 | 183333 | 215657
7 | 47:55.33 | 13:06.00 | 215658 | 274607
8 | 61:01.33 | 8:12.00 | 274608 | 311507
Range status and errors
Selected range
Filename F:\FOS\MY_MUSIC\String Trio of New York\String Trio Of New York - Octagon\String Trio Of New York - Octagon_.wav
Copy aborted
End of status report
 
Blues...?
Трэклист:
1. Cobalt Blue (Emery) 8:44
2. Depth (Lindberg) 4:55
3. Hurry Up And Wait (Carter) 5:13
4. Speedball (Lee Morgan) 4:06
5. I'm Afraid (Duke Ellington) 6:07
6. A Suite Of Works By Charlie Parker (Parker, arr. STNY) 6:08
7. Bellyachin' Blues (Lindberg) 7:16
8. Red Shift (Emery) 6:02
9. Freddie Freeloader (Miles Davis) 5:23
recorded October 5-6, 1993, Barigozzi Studio, Milan
Время звучания : 53:57
Исполнители:
Regina Carter, violin;
James Emery, guitar;
John Lindberg, bass
Год издания : 1995
Компания звукозаписи : Black Saint 120148 (Italy)
 
Отчет ЕАС
Exact Audio Copy V0.99 prebeta 5 from 4. May 2009
EAC extraction logfile from 23. August 2010, 23:28
String Trio of New York / Blues ?
Used drive : Optiarc DVD RW AD-5200S Adapter: 2 ID: 1
Read mode : Secure
Utilize accurate stream : Yes
Defeat audio cache : Yes
Make use of C2 pointers : No
Read offset correction : 48
Overread into Lead-In and Lead-Out : No
Fill up missing offset samples with silence : Yes
Delete leading and trailing silent blocks : No
Null samples used in CRC calculations : Yes
Used interface : Native Win32 interface for Win NT & 2000
Used output format : User Defined Encoder
Selected bitrate : 768 kBit/s
Quality : High
Add ID3 tag : No
Command line compressor : C:\Program Files\Exact Audio Copy\FLAC\FLAC.EXE
Additional command line options : -6 -V -T "ARTIST=%a" -T "TITLE=%t" -T "ALBUM=%g" -T "DATE=%y" -T "TRACKNUMBER=%n" -T "GENRE=%m" -T "COMMENT=%e" %s -o %d
Use compression offset : 0
TOC of the extracted CD
Track | Start | Length | Start sector | End sector
---------------------------------------------------------
1 | 0:00.33 | 8:44.00 | 33 | 39332
2 | 8:44.33 | 4:55.50 | 39333 | 61507
3 | 13:40.08 | 5:13.25 | 61508 | 85007
4 | 18:53.33 | 4:06.37 | 85008 | 103494
5 | 22:59.70 | 6:07.38 | 103495 | 131057
6 | 29:07.33 | 6:08.37 | 131058 | 158694
7 | 35:15.70 | 7:16.08 | 158695 | 191402
8 | 42:32.03 | 6:02.30 | 191403 | 218582
9 | 48:34.33 | 5:23.00 | 218583 | 242807
Range status and errors
Selected range
Filename F:\FOS\MY_MUSIC\String Trio of New York\String Trio of New York - Blues\String Trio of New York - Blues.wav
Peak level 99.0 %
Range quality 100.0 %
Test CRC E70D22EC
Copy CRC E70D22EC
Copy OK
No errors occurred
AccurateRip summary
Track 1 accurately ripped (confidence 1) [FB75D31E]
Track 2 accurately ripped (confidence 1) [0B3E0160]
Track 3 accurately ripped (confidence 1) [531F9C56]
Track 4 accurately ripped (confidence 1) [4673E9E5]
Track 5 accurately ripped (confidence 1) [32C7097C]
Track 6 accurately ripped (confidence 1) [5677998D]
Track 7 accurately ripped (confidence 1) [1FD69666]
Track 8 accurately ripped (confidence 1) [EFCBB952]
Track 9 accurately ripped (confidence 1) [C1900E0C]
All tracks accurately ripped
End of status report
 
String Trio Of New York With Anthony Davis
Трэклист:
1. Caravan (Duke Ellington/Juan Tizol) 7:17
2. Eronel (Thelonious Monk) 5:09
3. Ruby, My Dear (Thelonious Monk) 8:00
4. Happy Valley Blues (Anthony Davis) 13:13
5. Peggy's Blue Skylight (Charles Mingus) 4:59
6. Evidence (Thelonious Monk) 5:58
7. Heaven (Duke Ellington) 7:12
recorded November 20, 1996, Seltzer Sound, New York City
Время звучания : 53:57
Исполнители:
Regina Carter, violin;
James Emery, guitar;
John Lindberg, bass;
Anthony Davis, piano
Год издания : 1997
Компания звукозаписи : Music & Arts CD-994
 
Отчет ЕАС
Exact Audio Copy V0.99 prebeta 5 from 4. May 2009
EAC extraction logfile from 24. August 2010, 0:13
String Trio Of New York / String Trio Of New York With Anthony Davis
Used drive : Optiarc DVD RW AD-5200S Adapter: 2 ID: 1
Read mode : Secure
Utilize accurate stream : Yes
Defeat audio cache : Yes
Make use of C2 pointers : No
Read offset correction : 48
Overread into Lead-In and Lead-Out : No
Fill up missing offset samples with silence : Yes
Delete leading and trailing silent blocks : No
Null samples used in CRC calculations : Yes
Used interface : Native Win32 interface for Win NT & 2000
Used output format : User Defined Encoder
Selected bitrate : 768 kBit/s
Quality : High
Add ID3 tag : No
Command line compressor : C:\Program Files\Exact Audio Copy\FLAC\FLAC.EXE
Additional command line options : -6 -V -T "ARTIST=%a" -T "TITLE=%t" -T "ALBUM=%g" -T "DATE=%y" -T "TRACKNUMBER=%n" -T "GENRE=%m" -T "COMMENT=%e" %s -o %d
Use compression offset : 0
TOC of the extracted CD
Track | Start | Length | Start sector | End sector
---------------------------------------------------------
1 | 0:00.00 | 7:17.17 | 0 | 32791
2 | 7:17.17 | 5:08.05 | 32792 | 55896
3 | 12:25.22 | 8:00.73 | 55897 | 91969
4 | 20:26.20 | 13:12.62 | 91970 | 151431
5 | 33:39.07 | 4:59.00 | 151432 | 173856
6 | 38:38.07 | 5:58.15 | 173857 | 200721
7 | 44:36.22 | 7:14.18 | 200722 | 233289
Range status and errors
Selected range
Filename F:\FOS\MY_MUSIC\String Trio of New York\String Trio Of New York - String Trio Of New York With Anthony Davis\String Trio Of New York - String
Trio Of New York With Anthony Davis.wav
Peak level 98.3 %
Range quality 100.0 %
Test CRC B20DC95A
Copy CRC B20DC95A
Copy OK
No errors occurred
AccurateRip summary
Track 1 not present in database
Track 2 not present in database
Track 3 not present in database
Track 4 not present in database
Track 5 not present in database
Track 6 not present in database
Track 7 not present in database
None of the tracks are present in the AccurateRip database
End of status report
Any questions - support@pro-jazz.com. Есть вопросы - support@pro-jazz.com
02:40
221
Нет комментариев. Ваш будет первым!